Заходят многие - остаются лучшие!
Здравствуйте Гость ( Вход | Регистрация ) Выслать повторно письмо для активации
Вход
Ваше имя Пароль Забыли пароль?
Запомнить Вас?
Войти скрытым?



Новые сообщения раздела  

 

 Тайна морского дьявола / National Geographic. Manta Mystery (2011), National Geographic
bornik
  №1 Отправлено: 19.03.2017 - 19:41


Воспоминания - это богатства старости.

Группа: Модераторы
Регистрация: 18.08.2008
Сообщений: 876
Обитает:
Последний раз был:
вчера в 20:00




Тайна морского дьявола / National Geographic. Manta Mystery (2011)



«Тайна морского дьявола» - фильм повествует об удивительных обитателях морских глубин - скатах манта, а так же о работе проекта «Манта», участники которого собирают уникальный материал о численности, питании, размножении, миграции и продолжительности жизни мант.

Название: Тайна морского дьявола
Оригинальное название: Manta Mystery
Год выпуска: 2011
Жанр: Документальный, природа, фауна, флора
Выпущено: Австралия, KAUFMANN Productions Pty Ltd, National Geographic Channels
Продолжительность: 00:45:02
Субтитры: Русские (мои)

Режиссёр: Джисела Кауфманн / Gisela Kaufmann

В ролях: Кэти Таунсенд, Лиди Кутюрье, Фабрис Джаин, Роберт Рубин, Энтони Ричардсон, Гай Стивенс, Билл Эккер

Текст читает: Александр Гаврилин

Описание: Манта, или гигантский морской дьявол (лат. Manta birostris) - самый крупный из скатов, ширина тела отдельных особей достигает 7 м (в основной массе 4 - 4,5 метра), а масса крупных экземпляров - до 2 тонн. Скаты Манта встречаются в тропических водах всех океанов. Ротовая полость мант очень широкая и расположена на переднем крае головы. По бокам рта расположены две лопасти, направляющие ток воды в рот. Как и у других скатов-рогачей, у мант развит цедильный аппарат, состоящий из жаберных пластинок, на которых отфильтровывается пища - планктонные ракообразные и мелкая рыба.
Они прекрасно передвигаются в воде, с лёгкостью и грацией размахивая «крыльями» - брюшными плавниками. Иногда наблюдаются лежащими на поверхности воды. Самка манта приносит единственного, но весьма крупного детёныша шириной около 125 см и массой 10 кг.
Скаты манта преодолевают огромные расстояния в поисках пищи, постоянно следуя за перемещением планктона. Проще всего мант можно увидеть в Индийском океане летом (с июня по август), в отдельных местах можно увидеть до 10 особей мант, питающихся и одновременно очищающих брюхо о коралловый риф.
Ранее верили, что эти скаты могут напасть на ныряльщика, обняв сверху своими плавниками-крыльями и раздавив насмерть; бытовали поверья о том, что скат может проглотить человека. На самом деле единственная опасность для человека исходит от мант, выпрыгивающих из воды: они могут случайно обрушиться на лодку или пловца всем своим огромным весом.
Исследуя скопления скатов манта по всему миру мы наблюдаем их удивительное поведение, от редко снимаемых на плёнку кадров спаривания в полнолуние до уникального пищевого безумия, которое случается раз в год - просто завораживают. За этим ранее не наблюдали, а тем более не снимали в естественной среде. Потрясающие подводные танцы манта сравнивать просто не с чем.








General
Complete name : C:\DVD documental fimls\Тайна морского дьявола\Тайна морского дьявола (2011).avi
Format : AVI
Format/Info : Audio Video Interleave
File size : 710 MiB
Duration : 45mn 2s
Overall bit rate : 2 204 Kbps
Writing application : VirtualDubMod 1.5.10.2 (build 2540/release)
Writing library : VirtualDubMod build 2540/release

Video
ID : 0
Format : MPEG-4 Visual
Format profile : Advanced Simple@L5
Format settings, BVOP : 2
Format settings, QPel : No
Format settings, GMC : No warppoints
Format settings, Matrix : Default (H.263)
Muxing mode : Packed bitstream
Codec ID : XVID
Codec ID/Hint : XviD
Duration : 45mn 2s
Bit rate : 2 002 Kbps
Width : 720 pixels
Height : 400 pixels
Display aspect ratio : 16:9
Frame rate : 25.000 fps
Color space : YUV
Chroma subsampling : 4:2:0
Bit depth : 8 bits
Scan type : Progressive
Compression mode : Lossy
Bits/(Pixel*Frame) : 0.278
Stream size : 645 MiB (91%)
Writing library : XviD 65

Audio
ID : 1
Format : MPEG Audio
Format version : Version 1
Format profile : Layer 3
Mode : Joint stereo
Codec ID : 55
Codec ID/Hint : MP3
Duration : 45mn 2s
Bit rate mode : Constant
Bit rate : 192 Kbps
Channel(s) : 2 channels
Sampling rate : 48.0 KHz
Compression mode : Lossy
Stream size : 61.9 MiB (9%)
Alignment : Aligned on interleaves
Interleave, duration : 40 ms (1.00 video frame)
Interleave, preload duration : 504 ms
Writing library : LAME3.98r
Encoding settings : -m j -V 4 -q 3 -lowpass 18.6 -b 192


=================================

Исходником послужил релиз HDTV, найденный на просторах инета!

Архивы созданы RAR-архиватором с добавлением 3% на восстановление и снабжены sfv-проверочником.
Просьба к первому скачавшему отписаться о сохранности архивов на источнике раздачи.

Раздача рассчитана на месяц.

ПРИЯТНОГО ВСЕМ ПРОСМОТРА !!!




--------------------
Безоблачная старость – это миф,
Поскольку наша память – ширь морская,
И к ночи начинается прилив,
Со дна обломки прошлого таская.
Игорь Губерман

Скрыть подпись


baziss
№2 Отправлено: 20.03.2017 - 02:46


Аксакал обыкновенный

Группа: Аксакалы
Регистрация: 4.12.2005
Сообщений: 2395
Обитает:
Последний раз был:
9.05.2017 - 11:26
Отсутствую до конца мая




Архив в порядке. Спасибо!


--------------------

Скрыть подпись
Top
bornik
№3 Отправлено: 20.03.2017 - 11:13


Воспоминания - это богатства старости.

Группа: Модераторы
Регистрация: 18.08.2008
Сообщений: 876
Обитает:
Последний раз был:
вчера в 20:00




Цитата
( baziss @ 20.03.2017 - 02:46)
Архив в порядке. Спасибо!

И Вам, baziss, спасибо за добрую весть. happy_fly.gif


--------------------
Безоблачная старость – это миф,
Поскольку наша память – ширь морская,
И к ночи начинается прилив,
Со дна обломки прошлого таская.
Игорь Губерман

Скрыть подпись
Top
1 человек просматривает эту тему (1 гость)
« Предыдущая тема | Мир вокруг нас | Следующая тема »


 



[Script Execution time: 0,0340]   [23 queries used]   [GZIP enabled]