Заходят многие - остаются лучшие!
Здравствуйте Гость ( Вход | Регистрация ) Выслать повторно письмо для активации
Вход
Ваше имя Пароль Забыли пароль?
Запомнить Вас?
Войти скрытым?



 Правила раздела Новые сообщения раздела  


 

 Синяя луна / The Moon Is Blue (1953), К 100-летию Уильяма Холдена
surzhoks
  №1 Отправлено: 27.05.2018 - 10:29


Живёт здесь

Группа: Аксакалы
Регистрация: 17.03.2008
Сообщений: 1064
Обитает:
Последний раз был:
4.06.2018 - 19:46




Синяя луна / The Moon Is Blue


Страна: США
Студия: Otto Preminger Films
Жанр: романтическая комедия
Год выпуска: 1953
Продолжительность: 01:39:34
Режиссер: Отто Преминджер / Otto Preminger
Композитор: Хершел Бурк Гилберт / Herschel Burke Gilbert

В ролях:
Уильям Холден / William Holden ... Donald Gresham
Дэвид Нивен / David Niven ... David Slater
Мэгги МакНамара / Maggie McNamara ... Patty O'Neill
Том Талли / Tom Tully ... Michael O'Neill
Доун Аддамс / Dawn Addams ... Cynthia Slater
Фортунио Бонанова / Fortunio Bonanova ... Television Performer
Григорий Ратов / Gregory Ratoff ... Taxi Driver
Иоханнес Хестерс / Johannes Heesters ... Tourist, в титрах не указан
Йоханна Мац / Johanna Matz ... Tourist, в титрах не указана

Описание: Два состоятельных кутилы (в самом расцвете сил) увлекаются одной и той же молодой девушкой, однако она осаживает их, заявляя, что планирует расстаться с девственностью только после свадьбы. Оба мужчины пытаются найти способ добиться желаемого, не доводя дело до свадьбы.
- Blue Moon - это астрономический термин и речевой оборот,ближайшим аналогом которого является "после дождичка в четверг" (очень редкое или невозможное событие).

Награды
Золотой глобус, 1954 год
Победитель (1):
Лучшая мужская роль (комедия или мюзикл) ( Дэвид Нивен )

Оскар, 1954 год
Номинации (3):
Лучшая женская роль (Мэгги МакНамара)
Лучший монтаж
Лучшая песня — «The Moon Is Blue»

Британская академия, 1955 год
Номинации (2):
Лучший фильм
Самый многообещающий дебют (Мэгги МакНамара)


Раздача посвящена 100-летию Уильяма Холдена (17 апреля 1918 – 12 ноября 1981)
Доп. информация:
Огромное спасибо всем причастным к релизу:
рип - Магда,
перевод и озвучивание фильма- Владимир Воронцов (-Доцент-),
работа со звуком и реавторинг DVD- AlekceyR76,
финансовая поддержка перевода и озвучивания фильма:
Магда, Lafajet, jasenka, yanaelisa, Ugo927, елена 22, voostorg, cementit, HippopotamusIV, surzhoks, leoder, sindzi, борюська, sapog1960, mangust1

Архивы созданы RAR-архиватором с добавлением 3% на восстановление и снабжены sfv-проверочником.
Просьба к первому скачавшему отписаться о сохранности архивов на источнике раздачи.

Раздача рассчитана на 2 месяца. На просмотр линка и скачивание 5 дней!
В случае если вы встали в очередь, а затем отказываетесь от скачивания без объяснения причин, возможен отказ в последующих моих раздачах.



Полное имя :The Moon Is Blue.1953.DVDRip.avi
Формат : AVI
Формат/Информация : Audio Video Interleave
Размер файла : 1,59 Гбайт
Продолжительность : 1 ч. 39 м.
Общий поток : 2290 Кбит/сек
Программа кодирования : VirtualDubMod 1.5.4.1 (build 2178/release)
Библиотека кодирования : VirtualDubMod build 2178/release

Видео
Идентификатор : 0
Формат : MPEG-4 Visual
Профиль формата : Advanced Simple@L5
Параметр BVOP формата : 2
Параметр QPel формата : Нет
Параметр GMC формата : Без точки перехода
Параметр матрицы формата : Default (H.263)
Идентификатор кодека : DX50
Идентификатор кодека/Подсказка : DivX 5
Продолжительность : 1 ч. 39 м.
Битрейт : 1892 Кбит/сек
Ширина : 640 пикселей
Высота : 480 пикселей
Соотношение сторон : 4:3
Частота кадров : 23,976 кадра/сек
Цветовое пространство : YUV
Субдискретизация насыщенности : 4:2:0
Битовая глубина : 8 бит
Тип развёртки : Прогрессивная
Метод сжатия : С потерями
Бит/(Пиксели*Кадры) : 0.257
Размер потока : 1,32 Гбайт (83%)
Библиотека кодирования : XviD 73

Аудио #1
Идентификатор : 1
Формат : AC-3
Формат/Информация : Audio Coding 3
Расширение режима : CM (complete main)
Параметр Endianness формата : Big
Идентификатор кодека : 2000
Продолжительность : 1 ч. 39 м.
Вид битрейта : Постоянный
Битрейт : 192 Кбит/сек
Каналы : 2 канала
Расположение каналов : Front: L R
Частота : 48,0 КГц
Битовая глубина : 16 бит
Метод сжатия : С потерями
Размер потока : 137 Мбайт (8%)
Выравнивание : Разделение по промежуткам
Продолжительность промежутка : 42 мс. (1,00 видеокадр)
Время предзагрузки промежутка : 500 мс.

Аудио #2
Идентификатор : 2
Формат : AC-3
Формат/Информация : Audio Coding 3
Расширение режима : CM (complete main)
Параметр Endianness формата : Big
Идентификатор кодека : 2000
Продолжительность : 1 ч. 39 м.
Вид битрейта : Постоянный
Битрейт : 192 Кбит/сек
Каналы : 2 канала
Расположение каналов : Front: L R
Частота : 48,0 КГц
Битовая глубина : 16 бит
Метод сжатия : С потерями
Размер потока : 137 Мбайт (8%)
Выравнивание : Разделение по промежуткам
Продолжительность промежутка : 42 мс. (1,00 видеокадр)
Время предзагрузки промежутка : 500 мс.




vjub58
№2 Отправлено: 27.05.2018 - 11:00


Практикующий эсквайр

Группа: Аксакалы
Регистрация: 6.12.2005
Сообщений: 4758
Обитает:
Последний раз был:
вчера в 23:51




Спасибо, все ОК. pozdrav_buket.gif
Top
pushistiy
№3 Отправлено: 27.05.2018 - 18:21


Старожил

Группа: Потребители
Регистрация: 8.12.2013
Сообщений: 677
Последний раз был:
позавчера в 18:29




Цитата
surzhoks @ 27.05.2018 - 10:29
однако она осаживает их, заявляя, что планирует расстаться с девственностью только после свадьбы. Оба мужчины пытаются найти способ добиться желаемого, не доводя дело до свадьбы.

Ну натуральные козлы, что и говорить nunu.gif На месте девушки надо бы им обоим пинка под ж... wink2.gif
P.S. Это хороший метод воспитания ; да и, в натуре, есть же и другие "товарищи" pain25.gif
P.P.S. Ух ты, а тут ещё и Дэвид Нивен, оказывается wow.gif Одно это стоит внимания DD.gif


Это сообщение отредактировал pushistiy - 27.05.2018 - 18:23
Top
Ristel
№4 Отправлено: 29.05.2018 - 11:44


Мама.

Группа: Пользователи
Регистрация: 21.02.2007
Сообщений: 1857
Обитает:
Последний раз был:
позавчера в 22:24




Цитата
( pushistiy @ 27.05.2018 - 22:21)
Цитата
surzhoks @ 27.05.2018 - 10:29
однако она осаживает их, заявляя, что планирует расстаться с девственностью только после свадьбы. Оба мужчины пытаются найти способ добиться желаемого, не доводя дело до свадьбы.

Ну натуральные козлы, что и говорить nunu.gif На месте девушки надо бы им обоим пинка под ж... wink2.gif
P.S. Это хороший метод воспитания ; да и, в натуре, есть же и другие "товарищи" pain25.gif
P.P.S. Ух ты, а тут ещё и Дэвид Нивен, оказывается wow.gif Одно это стоит внимания DD.gif

Если бы на месте главной героини была Одри Хепберн, был бы совсем другой фильм sad.gif


--------------------
Радуйся жизни, пока ты ею недоволен - она проходит!

Скрыть подпись
Top
1 человек просматривает эту тему (1 гость)
« Предыдущая тема | Зарубежные фильмы | Следующая тема »


 



[Script Execution time: 0,0287]   [22 queries used]   [GZIP enabled]