Здравствуйте Гость ( Вход | Регистрация ) Выслать повторно письмо для активации
Вход
Ваше имя Пароль Забыли пароль?
Запомнить Вас?
Войти скрытым?



 Правила раздела Новые сообщения раздела  


 

 Оствинд 2 / Ostwind 2 (2015), Жанр: семейный, мелодрама
Alevtina
  №1 Отправлено: 30.12.2017 - 16:51


Время камни собирать...

Группа: Аксакалы
Регистрация: 12.02.2009
Сообщений: 5626
Обитает:
Последний раз был:
cегодня в 21:27




Оствинд 2 / Ostwind 2



Год выпуска: 2015

Страна: Германия

Жанр: семейный

Продолжительность: 01:45:28

Перевод: Любительский (многоголосый закадровый) ViruseProject

Субтитры: нет

Режиссёр: Катя фон Гарнье / Katja von Garnier

В ролях: Ханна Бинке, Марвин Линке, Корнелия Фробёсс, Тило Прюкнер, Юрген Фогель, Нина Кронъегер, Детлев Бук, Марла Мен, Амбер Бонгард и др.

Описание: Наступили летние каникулы, и Мика возвращается в Кальтенбах в тревоге за своего вороного друга Оствинда. В поместье бабушки тоже не все гладко: Кальтенбах на грани банкротства, и единственный шанс спасти его от разорения — принять участие в очередном турнире. Также Мике придется выяснить, откуда у Оствинда странные шрамы, узнать, кто такая Тридцать Третья, и пойти на сделку с незнакомцем, утверждающим, что он может помочь девушке выиграть турнир.

Перевод и озвучка:

IMDB ( http://www.imdb.com/title/tt3849938/)=6.0

Кинопоиск: ( https://www.kinopoisk.ru/film/vostochnyy-ve...-2015-846875/)= 7,74

Медиа-инфо:

Format : AVI
Format/Info : Audio Video Interleave
File size : 1.47 GiB
Duration : 1h 47mn
Overall bit rate : 1 943 Kbps
Writing application : VirtualDubMod 1.5.10.2 (build 2540/release)
Writing library : VirtualDubMod build 2540/release

Video
ID : 0
Format : MPEG-4 Visual
Format profile : Advanced Simple@L5
Format settings, BVOP : 1
Format settings, QPel : No
Format settings, GMC : No warppoints
Format settings, Matrix : Default (MPEG)
Codec ID : XVID
Codec ID/Hint : XviD
Duration : 1h 47mn
Bit rate : 1 742 Kbps
Width : 720 pixels
Height : 304 pixels
Display aspect ratio : 2.35:1
Frame rate : 24.000 fps
Color space : YUV
Chroma subsampling : 4:2:0
Bit depth : 8 bits
Scan type : Progressive
Compression mode : Lossy
Bits/(Pixel*Frame) : 0.332
Stream size : 1.31 GiB (90%)
Writing library : XviD 1.2.1 (UTC 2008-12-04)

Audio
ID : 1
Format : AC-3
Format/Info : Audio Coding 3
Mode extension : CM (complete main)
Format settings, Endianness : Big
Codec ID : 2000
Duration : 1h 47mn
Bit rate mode : Constant
Bit rate : 192 Kbps
Channel(s) : 2 channels
Channel positions : Front: L R
Sampling rate : 48.0 KHz
Compression mode : Lossy
Stream size : 148 MiB (10%)
Alignment : Split accross interleaves
Interleave, duration : 42 ms (1.00 video frame)
Interleave, preload duratio : 500 ms


Скриншоты:








Это сообщение отредактировал Alevtina - 30.12.2017 - 16:55


--------------------

Прохожие, купите Доброту!
Лишь за улыбку! Разве ж это много!
Исполните заветную мечту…
И хоть одну из Заповедей Бога!
Снимите маски «гордых» и «крутых»
Купите, хоть немножечко, Терпенья.
И ощутите сердцем, хоть на миг,
Всю прелесть и восторг благодаренья!
Сегодня, АКЦИЯ на Совесть и Любовь!
Притормозите «хаммер» свой, иль «буммер»!
Купите! И волнуйте свою кровь!
От этого ещё никто не умер!


Скрыть подпись


RomasVV
№2 Отправлено: 30.12.2017 - 19:56


Новичок

Группа: Потребители
Регистрация: 29.04.2009
Сообщений: 54
Обитает:
Последний раз был:
вчера в 14:07




Архивы в порядке. Спасибо за прекрасный фильм.
Top
Alevtina
№3 Отправлено: 30.12.2017 - 20:16


Время камни собирать...

Группа: Аксакалы
Регистрация: 12.02.2009
Сообщений: 5626
Обитает:
Последний раз был:
cегодня в 21:27




RomasVV, благодарю за весть!


--------------------

Прохожие, купите Доброту!
Лишь за улыбку! Разве ж это много!
Исполните заветную мечту…
И хоть одну из Заповедей Бога!
Снимите маски «гордых» и «крутых»
Купите, хоть немножечко, Терпенья.
И ощутите сердцем, хоть на миг,
Всю прелесть и восторг благодаренья!
Сегодня, АКЦИЯ на Совесть и Любовь!
Притормозите «хаммер» свой, иль «буммер»!
Купите! И волнуйте свою кровь!
От этого ещё никто не умер!


Скрыть подпись
Top
1 человек просматривает эту тему (1 гость)
« Предыдущая тема | Зарубежные фильмы | Следующая тема »


 



[Script Execution time: 0,0247]   [22 queries used]   [GZIP enabled]