Заходят многие - остаются лучшие!
Здравствуйте Гость ( Вход | Регистрация ) Выслать повторно письмо для активации
Вход
Ваше имя Пароль Забыли пароль?
Запомнить Вас?
Войти скрытым?



 Правила раздела Новые сообщения раздела  


 

 Ада / Ada (1961), К 100-летию Сьюзен Хэйуорд и Дина Мартина
surzhoks
  №1 Отправлено: 15.07.2017 - 20:14


Старожил

Группа: Аксакалы
Регистрация: 17.03.2008
Сообщений: 970
Обитает:
Последний раз был:
позавчера в 21:59




Ада / Ada


Страна: США
Студия: Avon Productions (II), Chalmar Inc.
Жанр: драма
Год выпуска: 1961
Продолжительность: 01:48:16
Режиссер: Дэниэл Манн / Daniel Mann

В ролях:
Сьюзен Хэйуорд / Susan Hayward ... Ada Gillis
Дин Мартин / Dean Martin ... Bo Gillis
Уилфрид Хайд-Уайт / Wilfrid Hyde-White ... Sylvester Marin
Мартин Болсам / Martin Balsam ... Steve Jackson
Ральф Микер / Ralph Meeker ... Colonel Yancey
Фрэнк Максвелл / Frank Maxwell ... Ronnie Hallerton
Конни Сойер / Connie Sawyer ... Alice Sweet
Форд Рейни / Ford Rainey ... Speaker
Чарльз Уоттс / Charles Watts ... Al Winslow
Ларри Гейтс / Larry Gates ... Joe Adams
Роберт С. Саймон / Robert S. Simon ... Warren Hatfield
Билл Закерт / Bill Zuckert (в титрах: William Zuckert) ... Harry Davers

Описание: Шериф Бо Гиллис, увлекающийся игрой на гитаре, под давлением политического советника Сильвестра Марина и пресс секретаря Стива Джексона выставляет свою кандидатуру на пост губернатора. Бо вполне себе успешно ведет предвыборную гонку... до тех пор, пока всего на одну роковую ночь в его постели ни оказывается проститутка и роковая красотка Ада. К ужасу Марина и Джексона влюблённый Бо женится на Аде, которой пришлось срочно корректировать официальную биографию. Неожиданно для всех Ада начинает проявлять завидную политическую активность...
По мотивам романа «Ада Даллас» Уирта Уильямса.

Раздача посвящена 100-летним юбилеям Сьюзен Хэйуорд (30 июня 1917 - 14 марта 1975) и Дина Мартина (7 июня 1917 - 25 декабря 1995)
Доп. информация:
Огромное спасибо всем причастным к релизу:
рип - Магда,
перевод фильма - karlivanovich,
озвучивание фильма (по русским субтитрам) - fiendover (Виктор Рутилов),
работа со звуком и реавторинг исходного DVD- AlekceyR76,
финансовая поддержка озвучивания фильма:
Магда, Lafajet, jasenka, елена 22, yanaelisa, sindzi, cementit, Ugo927, борюська, leoder, voostorg, surzhoks, HippopotamusIV, duum100, mumzik69

Архивы созданы RAR-архиватором с добавлением 3% на восстановление и снабжены sfv-проверочником.
Просьба к первому скачавшему отписаться о сохранности архивов на источнике раздачи.

Раздача рассчитана на 2 месяца. На просмотр линка и скачивание 5 дней!
В случае если вы встали в очередь, а затем отказываетесь от скачивания без объяснения причин, возможен отказ в последующих моих раздачах.



Полное имя :Ada.1961.DVDRip.avi
Формат : AVI
Формат/Информация : Audio Video Interleave
Размер файла : 1,60 Гбайт
Продолжительность : 1 ч. 48 м.
Общий поток : 2122 Кбит/сек
Программа кодирования : VirtualDubMod 1.5.4.1 (build 2178/release)
Библиотека кодирования : VirtualDubMod build 2178/release

Видео
Идентификатор : 0
Формат : MPEG-4 Visual
Профиль формата : Advanced Simple@L5
Параметр BVOP формата : 2
Параметр QPel формата : Нет
Параметр GMC формата : Без точки перехода
Параметр матрицы формата : Default (H.263)
Идентификатор кодека : DX50
Идентификатор кодека/Подсказка : DivX 5
Продолжительность : 1 ч. 48 м.
Битрейт : 1724 Кбит/сек
Ширина : 720 пикселей
Высота : 304 пикселя
Соотношение сторон : 2,35:1
Частота кадров : 23,976 кадра/сек
Цветовое пространство : YUV
Субдискретизация насыщенности : 4:2:0
Битовая глубина : 8 бит
Тип развёртки : Прогрессивная
Метод сжатия : С потерями
Бит/(Пиксели*Кадры) : 0.328
Размер потока : 1,30 Гбайт (81%)
Библиотека кодирования : XviD 73

Аудио #1
Идентификатор : 1
Формат : AC-3
Формат/Информация : Audio Coding 3
Расширение режима : CM (complete main)
Параметр Endianness формата : Big
Идентификатор кодека : 2000
Продолжительность : 1 ч. 48 м.
Вид битрейта : Постоянный
Битрейт : 192 Кбит/сек
Каналы : 2 канала
Расположение каналов : Front: L R
Частота : 48,0 КГц
Битовая глубина : 16 бит
Метод сжатия : С потерями
Размер потока : 149 Мбайт (9%)
Выравнивание : Разделение по промежуткам
Продолжительность промежутка : 42 мс. (1,00 видеокадр)
Время предзагрузки промежутка : 500 мс.

Аудио #2
Идентификатор : 2
Формат : AC-3
Формат/Информация : Audio Coding 3
Расширение режима : CM (complete main)
Параметр Endianness формата : Big
Идентификатор кодека : 2000
Продолжительность : 1 ч. 48 м.
Вид битрейта : Постоянный
Битрейт : 192 Кбит/сек
Каналы : 2 канала
Расположение каналов : Front: L R
Частота : 48,0 КГц
Битовая глубина : 16 бит
Метод сжатия : С потерями
Размер потока : 149 Мбайт (9%)
Выравнивание : Разделение по промежуткам
Продолжительность промежутка : 42 мс. (1,00 видеокадр)
Время предзагрузки промежутка : 500 мс.




Это сообщение отредактировал surzhoks - 15.07.2017 - 20:19


--------------------
Искусство откладывать деньги сводится к умению сказать “нет” потребительскому обществу.

Скрыть подпись


SALTAN
№2 Отправлено: 15.07.2017 - 23:14


Herr

Группа: Аксакалы
Регистрация: 19.01.2006
Сообщений: 9909
Последний раз был:
cегодня в 17:11




Архивы в порядке. Спасибо!!
Top
1 человек просматривает эту тему (1 гость)
« Предыдущая тема | Зарубежные фильмы | Следующая тема »


 



[Script Execution time: 0,0528]   [23 queries used]   [GZIP enabled]