Заходят многие - остаются лучшие!
Здравствуйте Гость ( Вход | Регистрация ) Выслать повторно письмо для активации
Вход
Ваше имя Пароль Забыли пароль?
Запомнить Вас?
Войти скрытым?



 Правила раздела Новые сообщения раздела  


 

 Напряжение / Suspense (1946), В ролях Белита, Барри Салливан, Альберт Деккер
surzhoks
  №1 Отправлено: 15.07.2017 - 20:40


Старожил

Группа: Аксакалы
Регистрация: 17.03.2008
Сообщений: 955
Обитает:
Последний раз был:
вчера в 19:52




Напряжение / Suspense


Страна: США
Студия: King Brothers Productions
Жанр: фильм-нуар, драма, мелодрама
Год выпуска: 1946
Продолжительность: 01:41:10
Режиссер: Фрэнк Таттл / Frank Tuttle
Композитор: Даниил Амфитеатров / Daniele Amfitheatrof
В ролях:
Белита / Belita ... Roberta Leonard, aka Roberta Elva
Барри Салливан / Barry Sullivan ... Joe Morgan
Альберт Деккер / Albert Dekker ... Frank Leonard
Бонита Грэнвилл / Bonita Granville ... Ronnie
Юджин Паллетт / Eugene Pallette ... Harry Wheeler
Джордж Э. Стоун / George E. Stone ... Max
Эдит Энголд / Edit Angold ... Nora
Леон Беласко / Leon Belasco ... Pierre Yasha
Мигуэлито Валдес / Miguelito Valdés ... Ice Show Singer

Описание: Владелец ледового шоу Фрэнк Леонард находится в творческом кризисе, который угрожает уничтожить его бизнес. Чтобы оживить свое шоу, в котором главную скрипку исполняет его жена Роберта, бизнесмен нанимает нового менеджера Джо Моргана. Тот предлагает несколько новых идей, и шоу получает новый толчок. Но вскоре Фрэнк начинает замечать, что Джо уделяет слишком много внимания его жене Роберте. Мало того, владелец шоу подозревает, что новый менеджер хочет наложить руку на весь его бизнес. Вдобавок поблизости начинают появляться люди из прошлого Джо, которые также имеют к нему несколько серьезных вопросов...

Доп. информация:
Огромное спасибо всем причастным к релизу:
рип - Магда,
перевод фильма - karlivanovich,
озвучивание фильма (по русским субтитрам) - fiendover (Виктор Рутилов),
работа со звуком и реавторинг исходного DVD- AlekceyR76,
финансовая поддержка перевода и озвучивания фильма:
Магда, Lafajet, jasenka, елена 22, yanaelisa, STICK24, voostorg, Ugo927, spartakeynoir, sindzi, HippopotamusIV, mangust1, cementit

Архивы созданы RAR-архиватором с добавлением 3% на восстановление и снабжены sfv-проверочником.
Просьба к первому скачавшему отписаться о сохранности архивов на источнике раздачи.

Раздача рассчитана на 2 месяца. На просмотр линка и скачивание 5 дней!
В случае если вы встали в очередь, а затем отказываетесь от скачивания без объяснения причин, возможен отказ в последующих моих раздачах.




Полное имя :Suspense.1946.DVDRip.avi
Формат : AVI
Формат/Информация : Audio Video Interleave
Размер файла : 1,60 Гбайт
Продолжительность : 1 ч. 41 м.
Общий поток : 2257 Кбит/сек
Программа кодирования : VirtualDubMod 1.5.4.1 (build 2178/release)
Библиотека кодирования : VirtualDubMod build 2178/release

Видео
Идентификатор : 0
Формат : MPEG-4 Visual
Профиль формата : Advanced Simple@L5
Параметр BVOP формата : 2
Параметр QPel формата : Нет
Параметр GMC формата : Без точки перехода
Параметр матрицы формата : Default (H.263)
Идентификатор кодека : DX50
Идентификатор кодека/Подсказка : DivX 5
Продолжительность : 1 ч. 41 м.
Битрейт : 1859 Кбит/сек
Ширина : 640 пикселей
Высота : 480 пикселей
Соотношение сторон : 4:3
Частота кадров : 23,976 кадра/сек
Цветовое пространство : YUV
Субдискретизация насыщенности : 4:2:0
Битовая глубина : 8 бит
Тип развёртки : Прогрессивная
Метод сжатия : С потерями
Бит/(Пиксели*Кадры) : 0.252
Размер потока : 1,31 Гбайт (82%)
Библиотека кодирования : XviD 73

Аудио #1
Идентификатор : 1
Формат : AC-3
Формат/Информация : Audio Coding 3
Расширение режима : CM (complete main)
Параметр Endianness формата : Big
Идентификатор кодека : 2000
Продолжительность : 1 ч. 41 м.
Вид битрейта : Постоянный
Битрейт : 192 Кбит/сек
Каналы : 2 канала
Расположение каналов : Front: L R
Частота : 48,0 КГц
Битовая глубина : 16 бит
Метод сжатия : С потерями
Размер потока : 139 Мбайт (9%)
Выравнивание : Разделение по промежуткам
Продолжительность промежутка : 42 мс. (1,00 видеокадр)
Время предзагрузки промежутка : 500 мс.

Аудио #2
Идентификатор : 2
Формат : AC-3
Формат/Информация : Audio Coding 3
Расширение режима : CM (complete main)
Параметр Endianness формата : Big
Идентификатор кодека : 2000
Продолжительность : 1 ч. 41 м.
Вид битрейта : Постоянный
Битрейт : 192 Кбит/сек
Каналы : 2 канала
Расположение каналов : Front: L R
Частота : 48,0 КГц
Битовая глубина : 16 бит
Метод сжатия : С потерями
Размер потока : 139 Мбайт (9%)
Выравнивание : Разделение по промежуткам
Продолжительность промежутка : 42 мс. (1,00 видеокадр)
Время предзагрузки промежутка : 500 мс.




--------------------
Искусство откладывать деньги сводится к умению сказать “нет” потребительскому обществу.

Скрыть подпись


сергей0808
№2 Отправлено: 16.07.2017 - 03:05


Старожил

Группа: Пользователи
Регистрация: 5.08.2009
Сообщений: 883
Обитает:
Последний раз был:
вчера в 18:11




Архивы в порядке. Благодарю за фильм!
Top
Oll
№3 Отправлено: 20.07.2017 - 11:09


Завсегдатай

Группа: Пользователи
Регистрация: 11.03.2009
Сообщений: 331
Обитает:
Последний раз был:
вчера в 17:36




СПАСИБО [
Top
1 человек просматривает эту тему (1 гость)
« Предыдущая тема | Зарубежные фильмы | Следующая тема »


 



[Script Execution time: 0,0331]   [23 queries used]   [GZIP enabled]