Заходят многие - остаются лучшие!
Здравствуйте Гость ( Вход | Регистрация ) Выслать повторно письмо для активации
Вход
Ваше имя Пароль Забыли пароль?
Запомнить Вас?
Войти скрытым?



Новые сообщения раздела  

 

 Библейский сюжет. Леонардо да Винчи. Тайная вечеря (2002), Авторская программа Дмитрия Менделеева
Alevtina
  №1 Отправлено: 14.12.2016 - 20:49


Время камни собирать...

Группа: Аксакалы
Регистрация: 12.02.2009
Сообщений: 5672
Обитает:
Последний раз был:
cегодня в 14:39




Библейский сюжет. Леонардо да Винчи. "Тайная вечеря"



В рамках проекта -

Год выпуска: 2002

Страна: Россия

Режиссер: Мария Гусева

Студия: ООО Студия "Неофит"

Автор и ведущий: Дмитрий Менделеев


Обращение великих художников к Библии никогда не заканчивалось только иллюстрацией того или иного сюжета Вечной Книги. Оно всегда предполагало личное осмысление. Художник выбирал библейскую историю, чтобы рассказать о себе, о своем времени, чтобы глубже постичь смысл происходящего.
Язык образов Святого Писания был универсален и понятен для всех. Но теперь для нас этот язык наполовину забыт. Мы уже не можем так ясно, с листа, читать всё, что говорили в своих произведениях художники, поэты, композиторы и писатели прошлого. Мы более опираемся на чувственное восприятие, которое все же является только частью замысла, его внешней стороной. В программе "Библейский сюжет" делается попытка соединить "прекрасного разрозненные части", по-другому взглянуть на всемирно известные произведения искусства, рассказать о судьбе их создателей.


Описание:

Во многом знании - немалая печаль,
Так говорил творец Екклесиаста.
Я вовсе не мудрец, но почему так часто
Мне жаль весь мир и человека жаль?
Я разве только я? Я – только краткий миг
Чужих существований. Боже правый,
Зачем Ты создал мир, и милый, и кровавый,
И дал мне ум, чтоб я его постиг!


За постер благодарю bornik! Спасибо!

Немаловажное дополнение! В раздаче присутствуют русские субтитры (для слабослышащих!).


Media-info:


Format : AVI
Format/Info : Audio Video Interleave
File size : 430 MiB
Duration : 25mn 44s
Overall bit rate : 2 334 Kbps
Writing application : VirtualDubMod 1.5.10.2 (build 2540/release)
Writing library : VirtualDubMod build 2540/release

Video
ID : 0
Format : MPEG-4 Visual
Format profile : Advanced Simple@L5
Format settings, BVOP : 2
Format settings, QPel : No
Format settings, GMC : No warppoints
Format settings, Matrix : Default (H.263)
Muxing mode : Packed bitstream
Codec ID : XVID
Codec ID/Hint : XviD
Duration : 25mn 44s
Bit rate : 2 197 Kbps
Width : 720 pixels
Height : 544 pixels
Display aspect ratio : 4:3
Frame rate : 25.000 fps
Color space : YUV
Chroma subsampling : 4:2:0
Bit depth : 8 bits
Scan type : Progressive
Compression mode : Lossy
Bits/(Pixel*Frame) : 0.224
Stream size : 405 MiB (94%)
Writing library : XviD 65

Audio
ID : 1
Format : MPEG Audio
Format version : Version 1
Format profile : Layer 3
Mode : Joint stereo
Mode extension : MS Stereo
Codec ID : 55
Codec ID/Hint : MP3
Duration : 25mn 44s
Bit rate mode : Constant
Bit rate : 128 Kbps
Channel(s) : 2 channels
Sampling rate : 48.0 KHz
Compression mode : Lossy
Stream size : 23.6 MiB (5%)
Alignment : Aligned on interleaves
Interleave, duration : 40 ms (1.00 video frame)
Interleave, preload duration : 504 ms
Writing library : LAME3.98r
Encoding settings : -m j -V 4 -q 3 -lowpass 17 -b 128



Скриншоты:





Записались на автоматическое включение в очередь:
baziss, Snara, valbar, vyur, RussianGuy, Marrina, медикус, mosk7, Nadejdaenergia, ILIA, Masjanja, ajlinn, oldfanat, bondsun, mikhailk, medandrey, oster47, Tanjusha, andrusenko, rittaa.

Если вы хотите, чтобы вас автоматически ставили в очередь на следующие выпуски данного цикла, - сообщите об этом в теме последней раздачи.




Это сообщение отредактировал Alevtina - 16.12.2016 - 00:09


--------------------

Прохожие, купите Доброту!
Лишь за улыбку! Разве ж это много!
Исполните заветную мечту…
И хоть одну из Заповедей Бога!
Снимите маски «гордых» и «крутых»
Купите, хоть немножечко, Терпенья.
И ощутите сердцем, хоть на миг,
Всю прелесть и восторг благодаренья!
Сегодня, АКЦИЯ на Совесть и Любовь!
Притормозите «хаммер» свой, иль «буммер»!
Купите! И волнуйте свою кровь!
От этого ещё никто не умер!


Скрыть подпись
kyo
№2 Отправлено: 14.12.2016 - 21:42


Живёт здесь

Группа: Потребители
Регистрация: 21.07.2007
Сообщений: 1950
Обитает:
Последний раз был:
cегодня в 17:57




Архив в порядке, спасибо !
Top
Alevtina
№3 Отправлено: 15.12.2016 - 05:18


Время камни собирать...

Группа: Аксакалы
Регистрация: 12.02.2009
Сообщений: 5672
Обитает:
Последний раз был:
cегодня в 14:39




kyo, благодарю за весть!!!


--------------------

Прохожие, купите Доброту!
Лишь за улыбку! Разве ж это много!
Исполните заветную мечту…
И хоть одну из Заповедей Бога!
Снимите маски «гордых» и «крутых»
Купите, хоть немножечко, Терпенья.
И ощутите сердцем, хоть на миг,
Всю прелесть и восторг благодаренья!
Сегодня, АКЦИЯ на Совесть и Любовь!
Притормозите «хаммер» свой, иль «буммер»!
Купите! И волнуйте свою кровь!
От этого ещё никто не умер!


Скрыть подпись
Top
1 человек просматривает эту тему (1 гость)
« Предыдущая тема | Мир и люди искусства | Следующая тема »


 



[Script Execution time: 0,0516]   [23 queries used]   [GZIP enabled]