Заходят многие - остаются лучшие!
Здравствуйте Гость ( Вход | Регистрация ) Выслать повторно письмо для активации
Вход
Ваше имя Пароль Забыли пароль?
Запомнить Вас?
Войти скрытым?



Новые сообщения раздела  

 

 Библейский сюжет. Владимир Короленко. Прощение. Чудная (2016), Перераздача в лучшем качестве. Авторская программа Дмитрия Менделеева
Alevtina
  №1 Отправлено: 16.12.2016 - 00:15


Время камни собирать...

Группа: Аксакалы
Регистрация: 12.02.2009
Сообщений: 5672
Обитает:
Последний раз был:
cегодня в 14:39




Библейский сюжет. Владимир Короленко. "Прощение. "Чудная""



Предыдущая раздача

В рамках проекта -

Год выпуска: 2016

Страна: Россия

Режиссер: Мария Гусева

Студия: ООО Студия "Неофит"

Автор и ведущий: Дмитрий Менделеев


Обращение великих художников к Библии никогда не заканчивалось только иллюстрацией того или иного сюжета Вечной Книги. Оно всегда предполагало личное осмысление. Художник выбирал библейскую историю, чтобы рассказать о себе, о своем времени, чтобы глубже постичь смысл происходящего.
Язык образов Святого Писания был универсален и понятен для всех. Но теперь для нас этот язык наполовину забыт. Мы уже не можем так ясно, с листа, читать всё, что говорили в своих произведениях художники, поэты, композиторы и писатели прошлого. Мы более опираемся на чувственное восприятие, которое все же является только частью замысла, его внешней стороной. В программе "Библейский сюжет" делается попытка соединить "прекрасного разрозненные части", по-другому взглянуть на всемирно известные произведения искусства, рассказать о судьбе их создателей.


Описание:

Что это, говорю, барышня, за что сердце против меня имеете? Или я враг вам какой? - Враг и есть, а разве не знаете? Конечно, враг! Голос у нее слабый стал, тихий, на щеках румянец так и горит, и столь лицо у нее приятное, кажется, не нагляделся б. Эх, думаю, не жилица она на свете, стал прощения просить, как бы, думаю, не померла. «Простите меня, коли вам зло какое сделал». Известно, как по-нашему, по-христиански полагается А она опять, гляжу, закипает... «Простить! вот еще! Никогда не прощу, и не думайте, ни- когда! Помру скоро... так и знайте: не простила!» Владимир Короленко. «Чудная».


За постер благодарю bornik! Спасибо!

Немаловажное дополнение! В раздаче присутствуют русские субтитры (для слабослышащих!).

Настоящая раздача имеет преимущества перед предыдущей. Во-первых, для слабослышащих имеются субтитры, а потом - картинка значительно выше по качеству. Если кто не захочет перекачивать, можете отказаться от раздачи.




Media-info:


Format : AVI
Format/Info : Audio Video Interleave
File size : 426 MiB
Duration : 25mn 33s
Overall bit rate : 2 333 Kbps
Writing application : VirtualDubMod 1.5.10.2 (build 2540/release)
Writing library : VirtualDubMod build 2540/release

Video
ID : 0
Format : MPEG-4 Visual
Format profile : Advanced Simple@L5
Format settings, BVOP : 2
Format settings, QPel : No
Format settings, GMC : No warppoints
Format settings, Matrix : Default (H.263)
Muxing mode : Packed bitstream
Codec ID : XVID
Codec ID/Hint : XviD
Duration : 25mn 33s
Bit rate : 2 195 Kbps
Width : 720 pixels
Height : 400 pixels
Display aspect ratio : 16:9
Frame rate : 25.000 fps
Color space : YUV
Chroma subsampling : 4:2:0
Bit depth : 8 bits
Scan type : Progressive
Compression mode : Lossy
Bits/(Pixel*Frame) : 0.305
Stream size : 401 MiB (94%)
Writing library : XviD 65

Audio
ID : 1
Format : MPEG Audio
Format version : Version 1
Format profile : Layer 3
Mode : Joint stereo
Mode extension : MS Stereo
Codec ID : 55
Codec ID/Hint : MP3
Duration : 25mn 33s
Bit rate mode : Constant
Bit rate : 128 Kbps
Channel(s) : 2 channels
Sampling rate : 48.0 KHz
Compression mode : Lossy
Stream size : 23.4 MiB (5%)
Alignment : Aligned on interleaves
Interleave, duration : 40 ms (1.00 video frame)
Interleave, preload duration : 504 ms
Writing library : LAME3.98r
Encoding settings : -m j -V 4 -q 3 -lowpass 17 -b 128



Скриншоты:






Записались на автоматическое включение в очередь:
baziss, Snara, valbar, vyur, RussianGuy, Marrina, медикус, mosk7, Nadejdaenergia, ILIA, Masjanja, ajlinn, oldfanat, bondsun, mikhailk, medandrey, oster47, Tanjusha, andrusenko, rittaa.

Если вы хотите, чтобы вас автоматически ставили в очередь на следующие выпуски данного цикла, - сообщите об этом в теме последней раздачи.




Это сообщение отредактировал Alevtina - 19.12.2016 - 19:23


--------------------

Прохожие, купите Доброту!
Лишь за улыбку! Разве ж это много!
Исполните заветную мечту…
И хоть одну из Заповедей Бога!
Снимите маски «гордых» и «крутых»
Купите, хоть немножечко, Терпенья.
И ощутите сердцем, хоть на миг,
Всю прелесть и восторг благодаренья!
Сегодня, АКЦИЯ на Совесть и Любовь!
Притормозите «хаммер» свой, иль «буммер»!
Купите! И волнуйте свою кровь!
От этого ещё никто не умер!


Скрыть подпись


rtynfdh
№2 Отправлено: 16.12.2016 - 02:27


Живёт здесь

Группа: Модераторы
Регистрация: 3.05.2011
Сообщений: 2137
Обитает:
Последний раз был:
cегодня в 14:22




Alevtina, есть предыдущая раздача - http://fenixclub.com/index.php?showtopic=1...dpost&p=8697098.
Тоже Ваша, полугодовой давности, открытая. Я её закрываю, но здесь дайте, пожалуйста, ссылку. В очереди некоторые стоят повторно. Они это должны понимать.
Top
Sentjabr22
№3 Отправлено: 16.12.2016 - 04:42


Старожил

Группа: Форумчане
Регистрация: 25.08.2009
Сообщений: 647
Обитает:
Последний раз был:
cегодня в 13:07




Архивы в порядке. Спасибо.
Top
Alevtina
№4 Отправлено: 21.12.2016 - 22:38


Время камни собирать...

Группа: Аксакалы
Регистрация: 12.02.2009
Сообщений: 5672
Обитает:
Последний раз был:
cегодня в 14:39




Sentjabr22, благодарю за весть!


--------------------

Прохожие, купите Доброту!
Лишь за улыбку! Разве ж это много!
Исполните заветную мечту…
И хоть одну из Заповедей Бога!
Снимите маски «гордых» и «крутых»
Купите, хоть немножечко, Терпенья.
И ощутите сердцем, хоть на миг,
Всю прелесть и восторг благодаренья!
Сегодня, АКЦИЯ на Совесть и Любовь!
Притормозите «хаммер» свой, иль «буммер»!
Купите! И волнуйте свою кровь!
От этого ещё никто не умер!


Скрыть подпись
Top
1 человек просматривает эту тему (1 гость)
« Предыдущая тема | Мир и люди искусства | Следующая тема »


 



[Script Execution time: 0,0445]   [23 queries used]   [GZIP enabled]