Заходят многие - остаются лучшие!
Здравствуйте Гость ( Вход | Регистрация ) Выслать повторно письмо для активации
Вход
Ваше имя Пароль Забыли пароль?
Запомнить Вас?
Войти скрытым?



 Правила раздела Новые сообщения раздела  


 

 Путёвка в жизнь (1931), Драма;Реж.-Н.Экк;Роли-Й.Кырля,Н.Баталов,М.Жаров
SanSan48
  №1 Отправлено: 30.11.2015 - 15:31


"Спартак" - ЧЕМПИОН!!!

Группа: Пользователи
Регистрация: 28.12.2009
Сообщений: 1892
Обитает:
Последний раз был:
вчера в 21:32




Путёвка в жизнь (1931)



Предыдущие раздачи:
13.08.2014 (SATrip), (16.01.2014) SATrip (восстановленная версия 1957 года),
(17.09.2011) DVDrip,
(07.06.2010) DVDrip, (30.06.2007) DVDrip (восстановленная версия 1957 года)

Название: Путёвка в жизнь
Жанр: Драма
Выпущено: СССР, Межрабпомфильм
Год выпуска: 1931
Премьера (СССР): 1 июня 1931
Премьера (мир): 30 сентября 1931 (Германия, Берлин), 27 января 1932 (США, Нью-Йорк)
Сценарий: Николай Экк, Александр Столпер, Регина Янушкевич
Оператор: Василий Пронин
Композитор: Яков Столляр
Художники: Иван Степанов, Борис Десницкий

Режиссёр: Николай Экк

В ролях:
Йыван Кырля (Кырла) ... Мустафа "Ферт", беспризорник
Михаил Джагофаров ... Колька "Свист", Николай Ребров, беспризорник
Александр Новиков ... Васька "Буза", беспризорник
Николай Баталов ... Николай Иванович Сергеев, организатор трудовой коммуны ОГПУ для беспризорников в 50-ти километрах от железной дороги
Мария Антропова ... Скрябина, детский социальный инспектор
Михаил Жаров ... Фомка "Жиган"
Мария Гонта ... Лелька "Мазиха"
Владимир Весновский ... отец Кольки
Регина Янушкевич ... мать Кольки
Василий Качалов ... вступительное и заключительное слово
Николай Гладков ... торговец-нэпман Самгин, член общества "Друг детей", который избивал Кольку (нет в титрах)
Владимир Уральский ... заведующий распределителем деткомиссии ВЦИК (нет в титрах)
Рина Зелёная ... девушка из "малины" Жигана (нет в титрах)
поет песню "На столе стоит чернила, а в черниле два пера. Прощай папа, прощай мама - я поеду на Кавказ!"
Виктор Лазарев ... эпизод (нет в титрах)
Георгий Жжёнов ... эпизод (нет в титрах)

Описание:
1923 год. В стране идёт борьба с голодом и разрухой. Десятки тысяч осиротевших, беспризорных детей скитаются по дорогам. Создается трудовая коммуна, в которой их должны собрать и перевоспитать. Руководитель коммуны Сергеев берётся за это нелёгкое дело...

Дополнительная информация:
Релиз:

Автор рипа: pmv

Исходник качеством DVB-S от Cheef mate, за что ему Большое Спасибо!
(Запись потока *.ts со спутника Экспресс АМ7, 40° в.д., с ТК «Россия-Культура»)

Интересно:
* Стихотворное посвящение в начале и конце фильма читает Василий Качалов.
* Дебютная работа в кино незаконно репрессированного в 1937 году актёра Йывана Кырли (Кирилла Иванова), сыгравшего Мустафу Ферта.
* Первая работа в кино актрисы Рины (Екатерины) Зелёной (девушка из шайки Жигана).
* Первый советский звуковой фильм, получивший мировое признание: закуплен 26 странами. Режиссёр Н. Экк признан лучшим по опросу среди зрителей I МКФ в Венеции (1932 г.)
* В данной раздаче представлена оригинальной версия фильма в отличном качестве.

IMDb = 7,2/10 from 194 users - http://www.imdb.com/title/tt0022289/
Кинопоиск = 7.715 (604) - http://www.kinopoisk.ru/film/43365

Параметры файла:
Название файла: Путёвка в жизнь (1931).avi
Качество видео: SATRip-AVC
Формат видео: MKV
Размер: 1,47 ГБ (1 580 479 143 bytes)
Продолжительность: 01:46:45
Видео: AVC (H264), 688@768x576 (1.33:1), 25 fps, ~1780 kbps avg, 0.18 bit/pixel
Аудио: AC3, 48 KHz, stereo (2 ch), ~192 kbps avg



General
Unique ID : 209124315641619255148929660365422740341 (0x9D53E0CF0D67527A9D14D85CBCF84375)
Complete name : D:\torrents\Путёвка в жизнь (1931).mkv
Format : Matroska
Format version : Version 4 / Version 2
File size : 1.47 GiB
Duration : 1h 46mn
Overall bit rate : 1 974 Kbps
Encoded date : UTC 2015-11-27 09:57:26
Writing application : mkvmerge v8.5.2 ('Crosses') 64bit
Writing library : libebml v1.3.3 + libmatroska v1.4.4
DURATION : 01:46:44.704000000
NUMBER_OF_FRAMES : 200147
NUMBER_OF_BYTES : 153712896
_STATISTICS_WRITING_APP : mkvmerge v8.5.2 ('Crosses') 64bit
_STATISTICS_WRITING_DATE_UTC : 2015-11-27 09:57:26
_STATISTICS_TAGS : BPS DURATION NUMBER_OF_FRAMES NUMBER_OF_BYTES

Video
ID : 1
Format : AVC
Format/Info : Advanced Video Codec
Format profile : High@L4.1
Format settings, CABAC : Yes
Format settings, ReFrames : 16 frames
Codec ID : V_MPEG4/ISO/AVC
Duration : 1h 46mn
Bit rate : 1 780 Kbps
Width : 688 pixels
Height : 576 pixels
Display aspect ratio : 4:3
Original display aspect ratio : 1.194
Frame rate mode : Constant
Frame rate : 25.000 fps
Color space : YUV
Chroma subsampling : 4:2:0
Bit depth : 8 bits
Scan type : Progressive
Bits/(Pixel*Frame) : 0.180
Stream size : 1.30 GiB (88%)
Writing library : x264 core 146 r2538 121396c
Encoding settings : cabac=1 / ref=16 / deblock=1:0:0 / analyse=0x3:0x133 / me=umh / subme=10 / psy=1 / psy_rd=1.00:0.00 / mixed_ref=1 / me_range=24 / chroma_me=1 / trellis=2 / 8x8dct=1 / cqm=0 / deadzone=21,11 / fast_pskip=1 / chroma_qp_offset=-2 / threads=30 / lookahead_threads=4 / sliced_threads=0 / nr=0 / decimate=1 / interlaced=0 / bluray_compat=0 / constrained_intra=0 / bframes=8 / b_pyramid=2 / b_adapt=2 / b_bias=0 / direct=3 / weightb=1 / open_gop=0 / weightp=2 / keyint=250 / keyint_min=25 / scenecut=40 / intra_refresh=0 / rc_lookahead=60 / rc=2pass / mbtree=1 / bitrate=1780 / ratetol=1.0 / qcomp=0.60 / qpmin=0 / qpmax=69 / qpstep=4 / cplxblur=20.0 / qblur=0.5 / ip_ratio=1.40 / aq=1:1.00
Language : Russian
Default : Yes
Forced : No

Audio
ID : 2
Format : AC-3
Format/Info : Audio Coding 3
Mode extension : CM (complete main)
Format settings, Endianness : Big
Codec ID : A_AC3
Duration : 1h 46mn
Bit rate mode : Constant
Bit rate : 192 Kbps
Channel(s) : 2 channels
Channel positions : Front: L R
Sampling rate : 48.0 KHz
Bit depth : 16 bits
Compression mode : Lossy
Stream size : 147 MiB (10%)
Language : Russian
Default : Yes
Forced : No








МОИ РАЗДАЧИ НА ФЕНИКСе: ЗДЕСЬ




Это сообщение отредактировал SanSan48 - 30.11.2015 - 15:35


--------------------
"Спартак" - ЧЕМПИОН!!!

Скрыть подпись


astr76
№2 Отправлено: 30.11.2015 - 18:01


Новичок

Группа: Потребители
Регистрация: 16.08.2008
Сообщений: 56
Обитает:
Последний раз был:
вчера в 21:50




Архивы собрались, спасибо за раздачу
Top
SanSan48
№3 Отправлено: 30.11.2015 - 20:04


"Спартак" - ЧЕМПИОН!!!

Группа: Пользователи
Регистрация: 28.12.2009
Сообщений: 1892
Обитает:
Последний раз был:
вчера в 21:32




Цитата
( astr76 @ 30.11.2015 - 18:01)
Архивы собрались, спасибо за раздачу

astr76, Благодарю за информацию!


--------------------
"Спартак" - ЧЕМПИОН!!!

Скрыть подпись
Top
1 человек просматривает эту тему (1 гость)
« Предыдущая тема | Отечественное кино | Следующая тема »


 



[Script Execution time: 0,0525]   [23 queries used]   [GZIP enabled]