Заходят многие - остаются лучшие!
Здравствуйте Гость ( Вход | Регистрация ) Выслать повторно письмо для активации
Вход
Ваше имя Пароль Забыли пароль?
Запомнить Вас?
Войти скрытым?



 Правила раздела Новые сообщения раздела  


 

 Испытание на прочность / Shockproof (1949) HDRip, Режиссер Дуглас Серк, в гл.ролях Корнел Уайлд, Патриция Найт
surzhoks
  №1 Отправлено: 12.01.2019 - 12:25


Живёт здесь

Группа: Аксакалы
Регистрация: 17.03.2008
Сообщений: 1132
Обитает:
Последний раз был:
позавчера в 18:47




Испытание на прочность / Shockproof


Страна: США
Студия: Columbia Pictures Corporation
Жанр: фильм-нуар, драма, криминал
Год выпуска: 1949
Продолжительность: 01:19:47
Режиссер: Дуглас Серк / Douglas Sirk
Композитор: Джордж Данинг / George Duning

В ролях:
Корнел Уайлд / Cornel Wilde ... Griff Marat
Патриция Найт / Patricia Knight ... Jenny Marsh
Джон Барагрей / John Baragrey ... Harry Wesson
Эстер Минчотти / Esther Minciotti ... Mrs. Marat
Ховард Ст. Джон / Howard St. John ... Sam Brooks
Расселл Коллинз / Russell Collins ... Frederick Bauer
Чарльз Бейтс / Charles Bates ... Tommy Marat
Ширли Адамс / Shirley Adams ... Emmy, в титрах не указана
Гилберт Барнетт / Gilbert Barnett ... Barry, в титрах не указан
Ричард Бенедикт / Richard Benedict ... «Kid» - Knife Wielder, в титрах не указан

Описание: Бывшую заключённую Дженни Марш выпускают условно-досрочно под надзор инспектора Гриффа Марата. Она не желает подчиняться правилам и продолжает поддерживать связь со своим бывшим любовником, полукриминальным азартным игроком Гарри Вессоном. Тем не менее между Гриффом и Дженни начинается роман, и вскоре в нарушение условий условно-досрочного освобождения они женятся, а затем вынуждены податься в бега, когда Дженни становится подозреваемой в покушении на убийство Гарри.
- Как пишет историк кино Ричард Харланд Смит, фильм поставлен по одному из ранних сценариев Сэма Фуллера, который незадолго до того вернулся со службы на Второй мировой войне и только что отверг 7-летний контракт с Metro-Goldwyn-Mayer. Первый вариант сценария, который был написан Фуллером, носил название «Влюблённые» (таким же было и рабочее название фильма). Как говорил Фуллер в одном из интервью 1960-х годов, в нём рассказывалось «о женщине, которая, чтобы вернуть любимого, выходит замуж за другого». Независимый продюсер купил права на сценарий и принёс его в Columbia, где Дуглас Сирк, который в то время был контрактным режиссёром студии, получил задание поставить по этому сценарию фильм. Как написал кинокритик Мэтт Золлер Зейтц, «позднее Сирк говорил, что согласился поставить этот фильм, потому что он был посвящён его любимой теме — цене, которая платится за пренебрежение к запретам».
- Исполнители главных ролей Уайлд и Найт на момент создания фильма были мужем и женой.


Доп. информация:
Огромное спасибо всем причастным к релизу:
рип - Магда,
перевод фильма - karlivanovich,
озвучивание фильма (по русским субтитрам)- Kenum (Владислав Данилов),
работа со звуком - AlekceyR76,
финансовая поддержка перевода и озвучивания фильма:
Магда, Lafajet, jasenka, yanaelisa, STICK24, Ugo927, voostorg, exact, елена 22, sindzi, борюська, spartakeynoir, HippopotamusIV, cementit, Patsy+

Архивы созданы RAR-архиватором с добавлением 3% на восстановление и снабжены sfv-проверочником.
Просьба к первому скачавшему отписаться о сохранности архивов на источнике раздачи.

Раздача рассчитана на 2 месяца. На просмотр линка и скачивание 5 дней!
В случае если вы встали в очередь, а затем отказываетесь от скачивания без объяснения причин, возможен отказ в последующих моих раздачах.



Полное имя :Shockproof.avi
Формат : AVI
Формат/Информация : Audio Video Interleave
Размер файла : 1,37 Гбайт
Продолжительность : 1 ч. 19 м.
Общий поток : 2457 Кбит/сек
Программа кодирования : VirtualDubMod 1.5.10.3 | www.virtualdub-fr.org || (build 2550/release)
Библиотека кодирования : VirtualDubMod build 2550/release

Видео
Идентификатор : 0
Формат : MPEG-4 Visual
Профиль формата : Advanced Simple@L5
Параметр BVOP формата : 2
Параметр QPel формата : Нет
Параметр GMC формата : Без точки перехода
Параметр матрицы формата : Default (H.263)
Идентификатор кодека : DX50
Идентификатор кодека/Подсказка : DivX 5
Продолжительность : 1 ч. 19 м.
Битрейт : 2059 Кбит/сек
Ширина : 704 пикселя
Высота : 528 пикселей
Соотношение сторон : 4:3
Частота кадров : 23,976 кадра/сек
Цветовое пространство : YUV
Субдискретизация насыщенности : 4:2:0
Битовая глубина : 8 бит
Тип развёртки : Прогрессивная
Метод сжатия : С потерями
Бит/(Пиксели*Кадры) : 0.231
Размер потока : 1,15 Гбайт (84%)
Библиотека кодирования : XviD 73

Аудио #1
Идентификатор : 1
Формат : AC-3
Формат/Информация : Audio Coding 3
Расширение режима : CM (complete main)
Параметр Endianness формата : Big
Идентификатор кодека : 2000
Продолжительность : 1 ч. 19 м.
Вид битрейта : Постоянный
Битрейт : 192 Кбит/сек
Каналы : 1 канал
Расположение каналов : Front: C
Частота : 48,0 КГц
Битовая глубина : 16 бит
Метод сжатия : С потерями
Размер потока : 110 Мбайт (8%)
Выравнивание : Разделение по промежуткам
Продолжительность промежутка : 42 мс. (1,00 видеокадр)
Время предзагрузки промежутка : 500 мс.

Аудио #2
Идентификатор : 2
Формат : AC-3
Формат/Информация : Audio Coding 3
Расширение режима : CM (complete main)
Параметр Endianness формата : Big
Идентификатор кодека : 2000
Продолжительность : 1 ч. 19 м.
Вид битрейта : Постоянный
Битрейт : 192 Кбит/сек
Каналы : 1 канал
Расположение каналов : Front: C
Частота : 48,0 КГц
Битовая глубина : 16 бит
Метод сжатия : С потерями
Размер потока : 110 Мбайт (8%)
Выравнивание : Разделение по промежуткам
Продолжительность промежутка : 42 мс. (1,00 видеокадр)
Время предзагрузки промежутка : 500 мс.




vjub58
№2 Отправлено: 12.01.2019 - 14:44


Практикующий эсквайр

Группа: Аксакалы
Регистрация: 6.12.2005
Сообщений: 5009
Обитает:
Последний раз был:
16.04.2019 - 23:19




Спасибо, все ОК. pozdrav_buket.gif
Top
1 человек просматривает эту тему (1 гость)
« Предыдущая тема | Зарубежные фильмы | Следующая тема »


 



[Script Execution time: 0,0794]   [23 queries used]   [GZIP enabled]