Заходят многие - остаются лучшие!
Здравствуйте Гость ( Вход | Регистрация ) Выслать повторно письмо для активации
Вход
Ваше имя Пароль Забыли пароль?
Запомнить Вас?
Войти скрытым?



 Правила раздела Новые сообщения раздела  


 

 Один человек лишний / Тринадцатый человек / Un homme de trop / Il 13º uomo / Shock Troops (1967), Военный,боевик;Реж.-Коста-Гаврас;Роли-Б.Кремер,М.Пикколи,П.Брассёр
SanSan48
  №1 Отправлено: 27.01.2019 - 14:15


"Спартак" - ЧЕМПИОН!!!

Группа: Пользователи
Регистрация: 28.12.2009
Сообщений: 2024
Обитает:
Последний раз был:
вчера в 19:34




Один человек лишний / Тринадцатый человек / Un homme de trop / Il 13º uomo / Shock Troops (1967)



Жанр: Военный, боевик
Выпущено: Франция, Италия, Les Productions Artistes Associés, Sol Produzione, Terra Film
Год выпуска: 1967
Премьера (мир): 5 апреля 1967 (Франция), 3 ноября 1967 (Финляндия), 17 ноября 1967 (Италия), 24 ноября 1967 (Германия (ФРГ))
Премьера (СССР): июль 1967 (СССР, Московский международный кинофестиваль), декабрь 1968
Сценаристы: Даниэль Буланже / Daniel Boulanger, Коста-Гаврас / Costa-Gavras
Оператор: Жан Турнье / Jean Tournier
Композитор: Мишель Мань / Michel Magne
Монтажёр: Кристиан Годен / Christian Gaudin

Режиссёр: Коста-Гаврас / Costa-Gavras

В ролях:
Бруно Кремер / Bruno Cremer ... Cazal
Шарль Ванель / Charles Vanel ... Passevin
Жан-Клод Бриали / Jean-Claude Brialy ... Jean
Мишель Пикколи / Michel Piccoli ... The Extra Man
Клод Брассёр / Claude Brasseur ... Groubec
Жерар Блен / Gérard Blain ... Thomas
Жак Перрен / Jacques Perrin ... Kerk
Франсуа Перье / François Périer ... Moujon
Клод Броссе / Claude Brosset ... Ouf
Пьер Клементе / Pierre Clémenti ... Le milicien
Мишель Кретон / Michel Creton ... Solin
Паоло Фратини / Paolo Fratini ... Philippe
Джули Дассен / Julie Dassin ... Jeanne
Нино Сегурини / Nino Segurini ... Paco
Рене Алон / René Alone ... Le médecin

Описание: По роману Жан-Пьера Шаброля (Jean-Pierre Chabrol).
1943 год. Группа французского Сопротивления получает из Лондона приказ освободить двенадцать человек, приговоренных немецкими оккупантами к расстрелу. Партизанский отряд проводит исключительную по дерзости операцию и освобождает пленников. Мчится по улицам города крытый грузовик, в кузове которого 13 бывших смертников. Откуда же взялся тринадцатый, и кто он, этот лишний человек? ...

Дополнительная информация:
Релиз:

Исходник найден в сети.

Автор рипа: pmv

Большое спасибо за:
- аудиодорожку с советским дубляжом - Доброму человеку
- синхронизацию звуковой аудиодорожки - Urasik
- вставка озвучки на вырезанные фрагменты - pmv
- перевод вырезанных в дубляже фрагментов - Urasik, CCK+
- озвучка вырезанных в дубляже фрагментов - ССК+

* Фильм дублирован на киностудии «Мосфильм» и выпущен в прокат в декабре 1968 года.
Режиссер дубляжа: Татьяна Березанцева
Звукорежиссёр дубляжа:
Русский текст:
Редактор:
Роли дублировали: Владимир Балашов, Анатолий Кузнецов, Олег Голубицкий, Владимир Ферапонтов, Вячеслав Подвиг, Владимир Гусев, Павел Шпрингфельд, Игорь Ясулович, Константин Тыртов, Валентин Зубков, Феликс Яворский, Михаил Глузский

* В советском прокате фильм демонстрировался на 17 минут короче.

* Награды и номинации:
ММКФ, 1967 год

Номинации (1):
- Главный приз (Costa-Gavras)

IMDb = 7,1/10 (390) - https://www.imdb.com/title/tt0062416/
Кинопоиск = 6.804 (58) - https://www.kinopoisk.ru/film/112294/

ВНИМАНИЕ!!! РИП ФОРМАТА mkv (кодек H.264) ВОСПРОИЗВОДИТСЯ НЕ НА ВСЕХ БЫТОВЫХ ВИДЕОПЛЕЕРАХ!!!

Параметры файла:
Название: Un homme de trop (1967, rus_dub+fre+sub_fre).mkv
Качество видео: HDRip-AVC
Формат видео: MKV
Размер: 1,46 ГБ (1 576 054 916 байт)
Продолжительность: 01:50:49
Перевод: Профессиональный (дублированный) – к/с «Мосфильм»
Субтитры: французский
Оригинальная аудиодорожка: французский
Видео: AVC (H264), 1152x480 (2.40:1), 25 fps, 1510 kbps, 0.109 Bits/Pixel
Аудио #1: AC3, 48 KHz, stereo (2 ch), 192 kbps – советский дубляж
Аудио #2: AC3, 48 KHz, stereo (2 ch), 192 kbps - французский



General
Unique ID : 294174505103049309831959555809848113314 (0xDD4FF2E6377017FF1E978A3051E4B8A2)
Complete name : D:\torrents\Un homme de trop (1967, rus_dub+fre+sub_fre).mkv
Format : Matroska
Format version : Version 4 / Version 2
File size : 1.47 GiB
Duration : 1 h 50 min
Overall bit rate : 1 896 kb/s
Encoded date : UTC 2019-01-27 04:44:44
Writing application : mkvmerge v30.1.0 ('Forever And More') 64-bit
Writing library : libebml v1.3.6 + libmatroska v1.4.9

Video
ID : 1
Format : AVC
Format/Info : Advanced Video Codec
Format profile : High@L4.1
Format settings, CABAC : Yes
Format settings, RefFrames : 15 frames
Codec ID : V_MPEG4/ISO/AVC
Duration : 1 h 50 min
Bit rate : 1 510 kb/s
Width : 1 152 pixels
Height : 480 pixels
Display aspect ratio : 2.40:1
Frame rate mode : Constant
Frame rate : 25.000 FPS
Color space : YUV
Chroma subsampling : 4:2:0
Bit depth : 8 bits
Scan type : Progressive
Bits/(Pixel*Frame) : 0.109
Stream size : 1.17 GiB (80%)
Writing library : x264 core 146 r2538 121396c
Encoding settings : cabac=1 / ref=15 / deblock=1:0:0 / analyse=0x3:0x133 / me=umh / subme=10 / psy=1 / psy_rd=1.00:0.00 / mixed_ref=1 / me_range=24 / chroma_me=1 / trellis=2 / 8x8dct=1 / cqm=0 / deadzone=21,11 / fast_pskip=1 / chroma_qp_offset=-2 / threads=48 / lookahead_threads=3 / sliced_threads=0 / nr=0 / decimate=1 / interlaced=0 / bluray_compat=0 / constrained_intra=0 / bframes=8 / b_pyramid=2 / b_adapt=2 / b_bias=0 / direct=3 / weightb=1 / open_gop=0 / weightp=2 / keyint=250 / keyint_min=25 / scenecut=40 / intra_refresh=0 / rc_lookahead=60 / rc=2pass / mbtree=1 / bitrate=1510 / ratetol=1.0 / qcomp=0.60 / qpmin=0 / qpmax=69 / qpstep=4 / cplxblur=20.0 / qblur=0.5 / ip_ratio=1.40 / aq=1:1.00
Language : French
Default : Yes
Forced : No

Audio #1
ID : 2
Format : AC-3
Format/Info : Audio Coding 3
Format settings, Endianness : Big
Codec ID : A_AC3
Duration : 1 h 50 min
Bit rate mode : Constant
Bit rate : 192 kb/s
Channel(s) : 2 channels
Channel positions : Front: L R
Sampling rate : 48.0 kHz
Frame rate : 31.250 FPS (1536 SPF)
Bit depth : 16 bits
Compression mode : Lossy
Stream size : 152 MiB (10%)
Language : Russian
Service kind : Complete Main
Default : Yes
Forced : No

Audio #2
ID : 3
Format : AC-3
Format/Info : Audio Coding 3
Format settings, Endianness : Big
Codec ID : A_AC3
Duration : 1 h 50 min
Bit rate mode : Constant
Bit rate : 192 kb/s
Channel(s) : 2 channels
Channel positions : Front: L R
Sampling rate : 48.0 kHz
Frame rate : 31.250 FPS (1536 SPF)
Bit depth : 16 bits
Compression mode : Lossy
Stream size : 152 MiB (10%)
Language : French
Service kind : Complete Main
Default : No
Forced : No

Text #1
ID : 4
Format : UTF-8
Codec ID : S_TEXT/UTF8
Codec ID/Info : UTF-8 Plain Text
Duration : 1 h 48 min
Bit rate : 0 b/s
Count of elements : 15
Stream size : 517 Bytes (0%)
Language : Russian
Default : Yes
Forced : Yes

Text #2
ID : 5
Format : UTF-8
Codec ID : S_TEXT/UTF8
Codec ID/Info : UTF-8 Plain Text
Duration : 1 h 48 min
Bit rate : 69 b/s
Count of elements : 1781
Stream size : 55.1 KiB (0%)
Language : French
Default : No
Forced : No








МОИ РАЗДАЧИ НА ФЕНИКСе: ЗДЕСЬ




Это сообщение отредактировал SanSan48 - 27.01.2019 - 14:19


--------------------
"Спартак" - ЧЕМПИОН!!!

Скрыть подпись
kyo
№2 Отправлено: 27.01.2019 - 15:17


Живёт здесь

Группа: Потребители
Регистрация: 21.07.2007
Сообщений: 2225
Обитает:
Последний раз был:
вчера в 19:59




Архивы в порядке, спасибо !
Top
SanSan48
№3 Отправлено: 27.01.2019 - 15:54


"Спартак" - ЧЕМПИОН!!!

Группа: Пользователи
Регистрация: 28.12.2009
Сообщений: 2024
Обитает:
Последний раз был:
вчера в 19:34




Цитата
( kyo @ 27.01.2019 - 15:17)
Архивы в порядке, спасибо !

kyo, Благодарю за сообщение!

Приятного всем просмотра!


--------------------
"Спартак" - ЧЕМПИОН!!!

Скрыть подпись
Top
evdokim63
№4 Отправлено: 27.01.2019 - 19:22


Завсегдатай

Группа: Потребители
Регистрация: 9.05.2015
Сообщений: 408
Обитает:
Последний раз был:
позавчера в 20:29




всё ОК. Спасибо
Top
wider2
№5 Отправлено: 28.01.2019 - 19:11


Живёт здесь

Группа: Потребители
Регистрация: 17.10.2006
Сообщений: 1183
Обитает:
Последний раз был:
вчера в 17:04




а с другой стороны...

если не предвзято посмотреть

то все это - лишь развесистая клюква

почти все их сопротивление - это миф
Top
SanSan48
№6 Отправлено: 29.01.2019 - 19:25


"Спартак" - ЧЕМПИОН!!!

Группа: Пользователи
Регистрация: 28.12.2009
Сообщений: 2024
Обитает:
Последний раз был:
вчера в 19:34




wider2 и evdokim63, объявляю серьёзное предупреждение. mobila.gif

Если встали в очередь на скачивание, но хотите отказться, не портите табличку -
ставьте, пожалуйста, галочку. А за крестик буду наказывать. koster.gif


Это сообщение отредактировал SanSan48 - 29.01.2019 - 19:25


--------------------
"Спартак" - ЧЕМПИОН!!!

Скрыть подпись
Top
fathezzz
№7 Отправлено: 30.01.2019 - 07:33


Посетитель

Группа: Потребители
Регистрация: 19.08.2010
Сообщений: 161
Обитает:
Последний раз был:
вчера в 23:09




Цитата
( wider2 @ 29.01.2019 - 02:11)
а с другой стороны...

если не предвзято посмотреть

то все это - лишь развесистая клюква

почти все их сопротивление - это миф

Ну а с третьей стороны, фильм, честно говоря, нудный и неинтересный..
Top
EvansT
№8 Отправлено: 1.02.2019 - 22:53


Старожил

Группа: Форумчане
Регистрация: 2.07.2008
Сообщений: 870
Обитает:
Последний раз был:
вчера в 10:25




Цитата
а с другой стороны...

если не предвзято посмотреть

то все это - лишь развесистая клюква

почти все их сопротивление - это миф


Ну а с третьей стороны, фильм, честно говоря, нудный и неинтересный..


а с четветртой стороны - тоска по Родине sad.gif лучше бы японский выложили , там живее как то ....и по лучше намного...
Top
SanSan48
№9 Отправлено: 2.02.2019 - 09:17


"Спартак" - ЧЕМПИОН!!!

Группа: Пользователи
Регистрация: 28.12.2009
Сообщений: 2024
Обитает:
Последний раз был:
вчера в 19:34




Цитата
( EvansT @ 1.02.2019 - 22:53)
Цитата
а с другой стороны...

если не предвзято посмотреть

то все это - лишь развесистая клюква

почти все их сопротивление - это миф


Ну а с третьей стороны, фильм, честно говоря, нудный и неинтересный..


а с четветртой стороны - тоска по Родине sad.gif лучше бы японский выложили , там живее как то ....и по лучше намного...

Чё та я не понЯл - это про Курилы, которые японцАм прокурили, или про что ...?

"Родиной - не торгуют!"


--------------------
"Спартак" - ЧЕМПИОН!!!

Скрыть подпись
Top
dublin
№10 Отправлено: 22.02.2019 - 21:48


Старожил

Группа: Аксакалы
Регистрация: 1.01.2007
Сообщений: 661
Обитает:
Последний раз был:
вчера в 22:31




Цитата
почти все их сопротивление - это миф


Был и не миф, назывался Компартия Франции.
Top
1 человек просматривает эту тему (1 гость)
« Предыдущая тема | Советский дубляж | Следующая тема »


 



[Script Execution time: 0,0408]   [24 queries used]   [GZIP enabled]