Заходят многие - остаются лучшие!
Здравствуйте Гость ( Вход | Регистрация ) Выслать повторно письмо для активации
Вход
Ваше имя Пароль Забыли пароль?
Запомнить Вас?
Войти скрытым?



 Правила раздела Новые сообщения раздела  


 

 Портрет в черных тонах / Portrait in Black (1960), Лана Тернер, Энтони Куинн, Сандра Ди / триллер, драма
surzhoks
  №1 Отправлено: 17.03.2018 - 20:38


Живёт здесь

Группа: Аксакалы
Регистрация: 17.03.2008
Сообщений: 1053
Обитает:
Последний раз был:
вчера в 19:59




Портрет в черных тонах / Portrait in Black


Страна: США
Студия: Paramount Pictures
Жанр: триллер, драма
Год выпуска: 1960
Продолжительность: 01:48:03
Режиссер: Майкл Гордон / Michael Gordon
Композитор: Фрэнк Скиннер / Frank Skinner

В ролях:
Лана Тернер / Lana Turner ... Sheila Cabot
Энтони Куинн / Anthony Quinn ... Dr. David Rivera
Ричард Бейсхарт / Richard Basehart ... Howard Mason
Сандра Ди / Sandra Dee ... Cathy Cabot
Джон Сэксон / John Saxon ... Blake Richards
Рей Уолстон / Ray Walston ... Cobb
Вирджиния Грей / Virginia Grey ... Miss Lee
Анна Мэй Вонг / Anna May Wong ... Tawny
Дэннис Кохлер / Dennis Kohler ... Peter Cabot
Ллойд Нолан / Lloyd Nolan ... Matthew S. Cabot
Элизабет Чан / Elizabeth Chan ... Chinese Dancer
Джон Венграф / John Wengraf ... Dr. Kessler

Описание: Больной и немощный богатейший судовладелец Мэтью Кэбот становится страшной обузой для своей второй жены Шейлы. Она не может расторгнуть опостылевший брак из-за маленького сына, который любит обоих родителей. Шейла находит утешение в объятиях врача своего мужа Дэвида Ривера и этот дуэт находит только один выход, при котором они будут счастливы оба...

Доп. информация:
Огромное спасибо всем причастным к релизу:
рип - Магда,
перевод фильма - Антон Каптелов,
озвучивание фильма (по русским субтитрам)- Игорь Клушин (хромолка) ,
исходная раздача на рутрекере с субтитрами- smip2010,
организация перевода- dimmm2v,
исходный DVD, работа со звуком и реавторинг DVD- AlekceyR76

Архивы созданы RAR-архиватором с добавлением 3% на восстановление и снабжены sfv-проверочником.
Просьба к первому скачавшему отписаться о сохранности архивов на источнике раздачи.

Раздача рассчитана на 2 месяца. На просмотр линка и скачивание 5 дней!
В случае если вы встали в очередь, а затем отказываетесь от скачивания без объяснения причин, возможен отказ в последующих моих раздачах.



Полное имя :Portrait in Black.1960.avi
Формат : AVI
Формат/Информация : Audio Video Interleave
Размер файла : 1,63 Гбайт
Продолжительность : 1 ч. 48 м.
Общий поток : 2158 Кбит/сек
Программа кодирования : VirtualDubMod 1.5.4.1 (build

2178/release)
Библиотека кодирования : VirtualDubMod build 2178/release

Видео
Идентификатор : 0
Формат : MPEG-4 Visual
Профиль формата : Advanced Simple@L5
Параметр BVOP формата : 2
Параметр QPel формата : Нет
Параметр GMC формата : Без точки перехода
Параметр матрицы формата : Default (H.263)
Идентификатор кодека : DX50
Идентификатор кодека/Подсказка : DivX 5
Продолжительность : 1 ч. 48 м.
Битрейт : 1728 Кбит/сек
Ширина : 704 пикселя
Высота : 336 пикселей
Соотношение сторон : 2,095
Частота кадров : 25,000 кадров/сек
Цветовое пространство : YUV
Субдискретизация насыщенности : 4:2:0
Битовая глубина : 8 бит
Тип развёртки : Прогрессивная
Метод сжатия : С потерями
Бит/(Пиксели*Кадры) : 0.292
Размер потока : 1,30 Гбайт (80%)
Библиотека кодирования : XviD 73

Аудио #1
Идентификатор : 1
Формат : AC-3
Формат/Информация : Audio Coding 3
Расширение режима : CM (complete main)
Параметр Endianness формата : Big
Идентификатор кодека : 2000
Продолжительность : 1 ч. 48 м.
Вид битрейта : Постоянный
Битрейт : 192 Кбит/сек
Каналы : 2 канала
Расположение каналов : Front: L R
Частота : 48,0 КГц
Битовая глубина : 16 бит
Метод сжатия : С потерями
Размер потока : 148 Мбайт (9%)
Выравнивание : Разделение по промежуткам
Продолжительность промежутка : 40 мс. (1,00 видеокадр)
Время предзагрузки промежутка : 500 мс.

Аудио #2
Идентификатор : 2
Формат : AC-3
Формат/Информация : Audio Coding 3
Расширение режима : CM (complete main)
Параметр Endianness формата : Big
Идентификатор кодека : 2000
Продолжительность : 1 ч. 48 м.
Вид битрейта : Постоянный
Битрейт : 224 Кбит/сек
Каналы : 2 канала
Расположение каналов : Front: L R
Частота : 48,0 КГц
Битовая глубина : 16 бит
Метод сжатия : С потерями
Размер потока : 173 Мбайт (10%)
Выравнивание : Разделение по промежуткам
Продолжительность промежутка : 40 мс. (1,00 видеокадр)
Время предзагрузки промежутка : 500 мс.




vjub58
№2 Отправлено: 17.03.2018 - 22:23


Практикующий эсквайр

Группа: Аксакалы
Регистрация: 6.12.2005
Сообщений: 4701
Обитает:
Последний раз был:
cегодня в 12:35




Спасибо, все ОК. pozdrav_buket.gif
Top
wider2
№3 Отправлено: 18.03.2018 - 06:39


Живёт здесь

Группа: Потребители
Регистрация: 17.10.2006
Сообщений: 1101
Обитает:
Последний раз был:
cегодня в 05:30




в принципе, если так вспомнить и подумать...
в конце 50х годов Энтони Куинн уже стал звездой
и мог тщательно выбирать сценарии, чтобы не сниматься во всякой ерунде, не тратить время на пустяки

Боюсь что без него этот фильм... обычный середнячок
Top
1 человек просматривает эту тему (1 гость)
« Предыдущая тема | Зарубежные фильмы | Следующая тема »


 



[Script Execution time: 0,0274]   [22 queries used]   [GZIP enabled]