Заходят многие - остаются лучшие!
Здравствуйте Гость ( Вход | Регистрация ) Выслать повторно письмо для активации
Вход
Ваше имя Пароль Забыли пароль?
Запомнить Вас?
Войти скрытым?



 Правила раздела Новые сообщения раздела  


 

 Лето насилия / Безжалостное лето / Жестокое лето / Estate violenta / Violent Summer (1959), Драма;Реж.-В.Дзурлини;Роли-Ж.-Л.Трентиньян,Э.Р.Драго
SanSan48
  №1 Отправлено: 24.10.2016 - 13:49


"Спартак" - ЧЕМПИОН!!!

Группа: Пользователи
Регистрация: 28.12.2009
Сообщений: 1823
Обитает:
Последний раз был:
cегодня в 09:36




Лето насилия / Безжалостное лето / Жестокое лето / Estate violenta / Violent Summer (1959)



Предыдущие раздачи:
15.07.2011 (DVDrip)
16.07.2007 (DVDrip)

Жанр: Драма
Выпущено: Италия, Франция, Titanus, Société Générale de Cinématographie (S.G.C.)
Год выпуска: 1959
Премьера (мир): 13 ноября 1959 (Италия), Март 1960 (Аргентина, Международный кинофестиваль в Мар-дель-Плате), 1 апреля 1960 (Япония)
Сценаристы: Валерио Дзурлини / Valerio Zurlini, Сузо Чекки д’Амико / Suso Cecchi D'Amico, Джорджо Проспери / Giorgio Prosperi
Оператор: Тино Сантони / Tino Santoni
Композитор: Марио Нашимбене / Mario Nascimbene
Художники: Массимилиано Каприччьоли / Massimiliano Capriccioli, Дарио Чекки / Dario Cecchi
Монтажёр: Марио Серандреи / Mario Serandrei

Режиссер: Валерио Дзурлини / Valerio Zurlini

В ролях:
Элеонора Росси Драго / Eleonora Rossi Drago ... Roberta Parmesan
Жан-Луи Трентиньян / Jean-Louis Trintignant ... Carlo Caremoli
Лилла Бриньоне / Lilla Brignone ... La madre di Roberta
Раф Маттиоли / Raf Mattioli ... Giorgio
Федерика Ранки / Federica Ranchi ... Maddalena
Катя Каро / Cathia Caro ... Serena
Джампьеро Литтера / Giampiero Littera ... Daniele
Бруно Каротенуто / Bruno Carotenuto ... Giulio
Тина Глориани / Tina Gloriani ... Emma
Энрико Мария Салерно / Enrico Maria Salerno ... Ettore Caremoli - il padre di Carlo
Жаклин Сассар / Jacqueline Sassard ... Rosanna
Надя Грей / Nadia Gray ...
Ксения Вальдери / Xenia Valderi ...

Описание:
Риччоне, тихий городок на Адриатическом побережье Италии, июль 1943 года. Ужасы войны пока ещё не пришли сюда. На этом почти пасторальном фоне разворачивается запретный в глазах окружающих роман между Карло, сыном крупного лидера фашистской партии, и намного старше его Робертой, вдовой капитана-героя войны. Внешний мир вторгается в тихую жизнь обитателей городка радиосводкой, сообщающей о падении режима Муссолини. А потом Карло останавливает военный патруль, и ему грозит мобилизация. Карло соглашается отсидеться в убежище, предоставляемым ему Робертой, но в пути их настигает бомбёжка. Роберта вынуждена вернуться в Риччоне, к матери и дочери, Карло продолжит свой путь в военную комендатуру. Оба понимают, что больше им не увидеться...

Дополнительная информация: Релиз:

Автор рипа: pmv

Исходник найден в сети.

Большое Спасибо за:
- звуковую дорожку с многоголосой озвучкой РенТВ - palmeiras
- синхронизацию русской дорожки - pmv

IMDb = 7,7/10 (843) - http://www.imdb.com/title/tt0052786/
Кинопоиск = 7.526 (165) - http://www.kinopoisk.ru/level/1/film/56868/

ВНИМАНИЕ!!! РИП ФОРМАТА mkv (кодек H.264) ВОСПРОИЗВОДИТСЯ НЕ НА ВСЕХ БЫТОВЫХ ВИДЕОПЛЕЕРАХ!!!

Параметры файла:
Название файла: Estate violenta (1959, HDTV, rus_MVO+ita+eng_sub+fre_sub).mkv
Качество видео: HDTVRip-AVC
Формат видео: MKV
Размер: 2,08 ГБ (2 235 073 734 bytes)
Продолжительность: 01:33:34
Перевод: Профессиональный (многоголосый закадровый) - РенТВ
Cубтитры: английские, французские
Оригинальная аудиодорожка: итальянский
Видео: AVC (H264), 880x648 (4:3), 25 fps, 2800 Kbps, 0.196 Bits/Pixel
Аудио #1: AC3, 48 KHz, stereo (2 ch), 192 Kbps – русский
Аудио #2: AC3, 48 KHz, stereo (2 ch), 192.00 kbps – итальянский



General
Unique ID : 189629244951381240225737677297528031428 (0x8EA9439D4273AA3AB57F809047EB48C4)
Complete name : C:\torrents\Estate violenta (1959, HDTV, rus_MVO+ita+eng_sub+fre_sub).mkv
Format : Matroska
Format version : Version 4 / Version 2
File size : 2.08 GiB
Duration : 1h 33mn
Overall bit rate : 3 185 Kbps
Encoded date : UTC 2016-10-20 20:59:05
Writing application : mkvmerge v9.5.0 ('Quiet Fire') 64bit
Writing library : libebml v1.3.4 + libmatroska v1.4.5
DURATION : 01:30:37.022000000
NUMBER_OF_FRAMES : 968
NUMBER_OF_BYTES : 33978
_STATISTICS_WRITING_APP : mkvmerge v9.5.0 ('Quiet Fire') 64bit
_STATISTICS_WRITING_DATE_UTC : 2016-10-20 20:59:05
_STATISTICS_TAGS : BPS DURATION NUMBER_OF_FRAMES NUMBER_OF_BYTES

Video
ID : 1
Format : AVC
Format/Info : Advanced Video Codec
Format profile : High@L4.1
Format settings, CABAC : Yes
Format settings, ReFrames : 14 frames
Codec ID : V_MPEG4/ISO/AVC
Duration : 1h 33mn
Bit rate : 2 800 Kbps
Width : 880 pixels
Height : 648 pixels
Display aspect ratio : 4:3
Frame rate mode : Constant
Frame rate : 25.000 fps
Color space : YUV
Chroma subsampling : 4:2:0
Bit depth : 8 bits
Scan type : Progressive
Bits/(Pixel*Frame) : 0.196
Stream size : 1.79 GiB (86%)
Writing library : x264 core 146 r2538 121396c
Encoding settings : cabac=1 / ref=14 / deblock=1:0:0 / analyse=0x3:0x133 / me=umh / subme=10 / psy=1 / psy_rd=1.00:0.00 / mixed_ref=1 / me_range=24 / chroma_me=1 / trellis=2 / 8x8dct=1 / cqm=0 / deadzone=21,11 / fast_pskip=1 / chroma_qp_offset=-2 / threads=42 / lookahead_threads=5 / sliced_threads=0 / nr=0 / decimate=1 / interlaced=0 / bluray_compat=0 / constrained_intra=0 / bframes=8 / b_pyramid=2 / b_adapt=2 / b_bias=0 / direct=3 / weightb=1 / open_gop=0 / weightp=2 / keyint=250 / keyint_min=25 / scenecut=40 / intra_refresh=0 / rc_lookahead=60 / rc=2pass / mbtree=1 / bitrate=2800 / ratetol=1.0 / qcomp=0.60 / qpmin=0 / qpmax=69 / qpstep=4 / cplxblur=20.0 / qblur=0.5 / ip_ratio=1.40 / aq=1:1.00
Language : Italian
Default : Yes
Forced : No

Audio #1
ID : 2
Format : AC-3
Format/Info : Audio Coding 3
Mode extension : CM (complete main)
Format settings, Endianness : Big
Codec ID : A_AC3
Duration : 1h 33mn
Bit rate mode : Constant
Bit rate : 192 Kbps
Channel(s) : 2 channels
Channel positions : Front: L R
Sampling rate : 48.0 KHz
Bit depth : 16 bits
Compression mode : Lossy
Stream size : 128 MiB (6%)
Language : Russian
Default : Yes
Forced : No

Audio #2
ID : 3
Format : AC-3
Format/Info : Audio Coding 3
Mode extension : CM (complete main)
Format settings, Endianness : Big
Codec ID : A_AC3
Duration : 1h 33mn
Bit rate mode : Constant
Bit rate : 192 Kbps
Channel(s) : 2 channels
Channel positions : Front: L R
Sampling rate : 48.0 KHz
Bit depth : 16 bits
Compression mode : Lossy
Stream size : 128 MiB (6%)
Language : Italian
Default : No
Forced : No

Text #1
ID : 4
Format : UTF-8
Codec ID : S_TEXT/UTF8
Codec ID/Info : UTF-8 Plain Text
Language : English
Default : Yes
Forced : No

Text #2
ID : 5
Format : UTF-8
Codec ID : S_TEXT/UTF8
Codec ID/Info : UTF-8 Plain Text
Language : French
Default : No
Forced : No








МОИ РАЗДАЧИ НА ФЕНИКСе: ЗДЕСЬ




Это сообщение отредактировал SanSan48 - 25.10.2016 - 07:06


--------------------
"Спартак" - ЧЕМПИОН!!!

Скрыть подпись


pushistiy
№2 Отправлено: 24.10.2016 - 18:06


Старожил

Группа: Потребители
Регистрация: 8.12.2013
Сообщений: 605
Последний раз был:
вчера в 13:18




Цитата
SanSan48 @ 24.10.2016 - 13:49
сыном крупного лидера фашистской парии,

парТии... sad.gif Поправьте, пожалуйста.
Top
bondsun
№3 Отправлено: 26.10.2016 - 12:05


кучерявый

Группа: Потребители
Регистрация: 17.08.2009
Сообщений: 4197
Обитает:
Последний раз был:
cегодня в 03:31





Благодарствую, архивы в порядке.


--------------------
Пусть рушится мир весь вокруг, пополам,
Пусть часто фортуна не прёт.
Не кофе нас должен бодрить по утрам,
А тот, кто его подаёт.

happy.gif

Скрыть подпись
Top
SanSan48
№4 Отправлено: 26.10.2016 - 18:21


"Спартак" - ЧЕМПИОН!!!

Группа: Пользователи
Регистрация: 28.12.2009
Сообщений: 1823
Обитает:
Последний раз был:
cегодня в 09:36




Цитата
( bondsun @ 26.10.2016 - 12:05)
Благодарствую, архивы в порядке.

bondsun, Спасибо за сообщение!


--------------------
"Спартак" - ЧЕМПИОН!!!

Скрыть подпись
Top
1 человек просматривает эту тему (1 гость)
« Предыдущая тема | Зарубежные фильмы | Следующая тема »


 



[Script Execution time: 0,0517]   [24 queries used]   [GZIP enabled]