Заходят многие - остаются лучшие!
Здравствуйте Гость ( Вход | Регистрация ) Выслать повторно письмо для активации
Вход
Ваше имя Пароль Забыли пароль?
Запомнить Вас?
Войти скрытым?



 Правила раздела Новые сообщения раздела  


 

 Остров сокровищ / Treasure Island (1934) WEBRip, приключения
sharky
  №1 Отправлено: 7.09.2017 - 05:43


Человек дождя

Группа: Аксакалы
Регистрация: 7.09.2007
Сообщений: 9735
Обитает:
Последний раз был:
cегодня в 06:55




Остров сокровищ / Treasure Island (1934)


Предыдущая раздача

Предыдущая раздача

Название: Остров сокровищ
Оригинальное название: Treasure Island
Год выхода: 1934
Жанр: приключения
Режиссер: Виктор Флеминг
Сценаристы: Джон Ли Махин, Джон Хоуард Лоусон, Леонард Прэскинс
Операторы: Клайд Де Винна, Рэй Джун, Хэролд Россон
Композитор: Херберт Стотхарт
В ролях: Уоллес Бири, Джеки Купер, Лайонел Бэрримор, Отто Крюгер, Льюис Стоун, Найджел Брюс, Чарльз "Чик" Сэйл, Уильям Ви Монг, Чарльз МакНотон, Дороти Питерсон, Дугласс Дамбрилль, Эдмунд Бриз, Олин Хоуленд, Чарльз Ирвин, Эдвард Поули, Ричард Пауэлл, Джеймс Бёрк, Джон Андерсон, Чарльз Беннетт
О фильме: Довольно полная и точная экранизация от студии MGM. Фильм снят на очень хорошем для тех лет техническом уровне, что в купе со съемками на природе и отличной игрой актеров, делает фильм одной из лучших экранизаций Острова Сокровищ.
1765 год. Юный Джим Хокинс живет со своей недавно овдовевшей матерью в гостинице на западном побережье Англии. Однажды у них на ночлег остановился бывший пират Билли Бонс, который очень переживал, что за ним следят злые люди под руководством человека на деревянной ноге. Они жаждут его смерти.
Выпущено: США, Metro-Goldwyn-Mayer
Премьера: 17 августа 1934

IMDb


General
Complete name : E:\Остров сокровищ_Treasure Island (1934) WEBRip.avi
Format : AVI
Format/Info : Audio Video Interleave
File size : 1.45 GiB
Duration : 1 h 42 min
Overall bit rate : 2 017 kb/s
Writing application : VirtualDubMod 1.5.10.2 (build 2540/release)
Writing library : VirtualDubMod build 2540/release

Video
ID : 0
Format : MPEG-4 Visual
Format profile : Advanced Simple@L5
Format settings, BVOP : 1
Format settings, QPel : No
Format settings, GMC : No warppoints
Format settings, Matrix : Default (H.263)
Codec ID : XVID
Codec ID/Hint : XviD
Duration : 1 h 42 min
Bit rate : 1 816 kb/s
Width : 704 pixels
Height : 528 pixels
Display aspect ratio : 4:3
Frame rate : 25.000 FPS
Color space : YUV
Chroma subsampling : 4:2:0
Bit depth : 8 bits
Scan type : Progressive
Compression mode : Lossy
Bits/(Pixel*Frame) : 0.195
Stream size : 1.30 GiB (90%)
Writing library : XviD 1.2.0.dev47 (UTC 2006-11-01)

Audio
ID : 1
Format : AC-3
Format/Info : Audio Coding 3
Format settings, Endianness : Big
Codec ID : 2000
Duration : 1 h 42 min
Bit rate mode : Constant
Bit rate : 192 kb/s
Channel(s) : 2 channels
Channel positions : Front: L R
Sampling rate : 48.0 kHz
Frame rate : 31.250 FPS (1536 spf)
Bit depth : 16 bits
Compression mode : Lossy
Stream size : 141 MiB (10%)
Alignment : Split accross interleaves
Interleave, duration : 40 ms (1.00 video frame)
Interleave, preload duratio : 500 ms
Service kind : Complete Main






















Раздача рассчитана на две - три недели.

Просьба: первому скачавшему сообщить о состоянии архива.
Перезаливает для архива: медикус




Это сообщение отредактировал медикус - 7.09.2017 - 23:20


--------------------

Лень - двигатель прогресса!

Скрыть подпись


sobinov
№2 Отправлено: 7.09.2017 - 11:30


Живёт здесь

Группа: Потребители
Регистрация: 18.07.2009
Сообщений: 3242
Обитает:
Последний раз был:
вчера в 14:04




Архивы в порядке. Спасибо!
Top
sharky
№3 Отправлено: 7.09.2017 - 11:40


Человек дождя

Группа: Аксакалы
Регистрация: 7.09.2007
Сообщений: 9735
Обитает:
Последний раз был:
cегодня в 06:55




Цитата
( sobinov @ 7.09.2017 - 11:30)
Архивы в порядке. Спасибо!

Пожалуйста и спасибо за информацию.


--------------------

Лень - двигатель прогресса!

Скрыть подпись
Top
Al1
№4 Отправлено: 7.09.2017 - 19:27


Попрошу без ярлыков!

Группа: Потребители
Регистрация: 12.03.2010
Сообщений: 422
Последний раз был:
cегодня в 05:21




...а все-таки жаль,
что вынута оригинальная дорога.
(бескофеиновое кофе, безалкогольное пиво и т.п.) pain25.gif
Top
1 человек просматривает эту тему (1 гость)
« Предыдущая тема | Зарубежные фильмы | Следующая тема »


 



[Script Execution time: 0,0320]   [24 queries used]   [GZIP enabled]