Заходят многие - остаются лучшие!
Здравствуйте Гость ( Вход | Регистрация ) Выслать повторно письмо для активации
Вход
Ваше имя Пароль Забыли пароль?
Запомнить Вас?
Войти скрытым?



 Правила раздела Новые сообщения раздела  


 

 Всё началось с Евы / Это началось из-за Евы / It Started with Eve (1941), Комедия,музыкальный;Реж-Г.Костер;Роли-Д.Дурбин,Ч.Лоутон
SanSan48
  №1 Отправлено: 27.05.2018 - 10:30


"Спартак" - ЧЕМПИОН!!!

Группа: Пользователи
Регистрация: 28.12.2009
Сообщений: 1901
Обитает:
Последний раз был:
позавчера в 13:29




Всё началось с Евы / Это началось из-за Евы / It Started with Eve (1941)



Предыдущие раздачи:
03.04.2013 (DVDrip)
05.02.2006 (DVDrip)

Жанр: Комедия, музыкальный, мелодрама
Выпущено: США, Universal Pictures
Год выпуска: 1941
Премьера (мир): 26 сентября 1941 (США), 11 декабря 1941 (Мексика), 23 апреля 1942 (Швеция)
Премьера (СССР): 13 декабря 1954
Сценаристы: Норман Красна / Norman Krasna, Лео Таунсенд / Leo Townsend, Ханнс Кряли / Hanns Kräly
Оператор: Рудольф Мате / Rudolph Maté
Композитор: Ханс Й. Зальтер / Hans J. Salter
Художники: Джек Оттерсон / Jack Otterson, Расселл А. Гаусман / Russell A. Gausman, Вера Уэст / Vera West
Монтажёр: Бернард У. Бёртон / Bernard W. Burton

Режиссёр: Генри Костер / Henry Koster

В ролях:
Дина Дурбин / Deanna Durbin ... Anne Terry
Чарльз Лоутон / Charles Laughton ... Jonathan Reynolds
Роберт Каммингс / Robert Cummings ... Jonathan «Johnny» Reynolds Jr.
Гай Кибби / Guy Kibbee ... Bishop Maxwell
Маргарет Толличет / Margaret Tallichet ... Gloria Pennington
Катрин Дусе / Catherine Doucet ... Mrs. Pennington
Уолтер Кэтлетт / Walter Catlett ... Doctor Harvey
Чарльз Коулмэн / Charles Coleman ... Roberts - Butler
Леонард Эллиотт / Leonard Elliott ... Reverend Henry Stebbins
Ирвинг Бэйкон / Irving Bacon ... Raven
Гас Шиллинг / Gus Schilling ... Raven
Вэйд Ботелер / Wade Boteler ... Harry - Newspaper Editor
Дороти Кент / Dorothea Kent ... Jackie Donovan
Клара Блэндик / Clara Blandick ... Nurse
Сиг Арно / Sig Arno ... Captain of Waiters

Описание: По рассказу Ханнса Кряли (Hanns Kräly).
Джонатан Рейнольдс (Чарльз Лоутон), выдающийся биржевой магнат, находясь на смертном одре, просит сына (Роберт Каммингс) исполнить его последнюю просьбу, показать ему будущую невестку. Но она (Маргарет Толличет) ушла за покупками со своей матерью. Сынок принимает решение выдать за свою избранницу первую попавшуюся девушку (Дина Дурбин). Увидев её милое лицо, старик приободряется и его здоровье начинает идти на поправку. Сын оказывается в пикантной ситуации, которая в итоге изменит его решение жениться…

Дополнительная информация: Релиз:

Исходник найден в сети.

Автор рипа: pmv

Большое спасибо за:
- аудиодорожку с русской озвучкой с раздачи – olegsa
- синхронизацию русской дорожки - pmv

* Милая и смешная кинокомедия, в которой Дина Дурбин дарит зрителям много приятных минут, радуя своей блестящей актерской игрой и как всегда талантливым исполнением песен.
Особо нужно подчеркнуть блестящую игру партнера Дины - Чарльза Лоутона, исполняющего роль старого больного, немощного человека. В фильме его игра настолько органична, что даже не сразу и понимаешь – ему ведь в момент съемок было всего 42 года. Браво, актёр!

* Награды и номинации:
Оскар, 1943 год
Номинации (1):
- Лучший саундтрек для музыкальных картин (Charles Previn, Hans J. Salter)

* Фильм демонстрировался в советском кинопрокате с декабря 1954 года под названием «Брак поневоле» с субтитрами, выполненными на киностудии им. М.Горького. Он относится к категории «трофейных» фильмов.

IMDb = 7,7/10 (995) - https://www.imdb.com/title/tt0033766/
Кинопоиск = 7.672 (367) - https://www.kinopoisk.ru/film/vsyo-nachalos...evy-1941-16655/

ВНИМАНИЕ!!! РИП ФОРМАТА mkv (кодек H.264) ВОСПРОИЗВОДИТСЯ НЕ НА ВСЕХ БЫТОВЫХ ВИДЕОПЛЕЕРАХ!!!

Параметры файла:
Название: It Started with Eve (1941, rus_MVO+eng+eng_sub).mkv
Качество видео: WEB-DLRip-AVC
Формат видео: MKV
Размер: 1,46 ГБ (1 569 881 839 байт)
Продолжительность: 01:30:23
Перевод: Профессиональный (многоголосый закадровый) – «Светла»
Субтитры: английские
Оригинальная аудиодорожка: английский
Видео: AVC (H264), 864x648 (4:3), 23.976 fps, 1930 kbps, 0.144 Bits/Pixel
Аудио #1: Dolby AC3, 48 kHz, stereo (2 ch), 192 kbps – русский
Аудио #2: Dolby AC3, 48 kHz, stereo (2 ch), 192 kbps – английский



General
Unique ID : 129643541339877607331599000098552149988 (0x6188701609F7B9B8337AC9CDCF4BF7E4)
Complete name : D:\torrents\It Started with Eve (1941, rus_MVO+eng+eng_sub).mkv
Format : Matroska
Format version : Version 4 / Version 2
File size : 1.46 GiB
Duration : 1 h 30 min
Overall bit rate : 2 315 kb/s
Encoded date : UTC 2018-05-23 11:24:34
Writing application : mkvmerge v23.0.0 ('The Bride Said No') 64-bit
Writing library : libebml v1.3.6 + libmatroska v1.4.9

Video
ID : 1
Format : AVC
Format/Info : Advanced Video Codec
Format profile : High@L4.1
Format settings, CABAC : Yes
Format settings, ReFrames : 14 frames
Codec ID : V_MPEG4/ISO/AVC
Duration : 1 h 30 min
Bit rate : 1 930 kb/s
Width : 864 pixels
Height : 648 pixels
Display aspect ratio : 4:3
Frame rate mode : Constant
Frame rate : 23.976 (23976/1000) FPS
Original frame rate : 23.976 (24000/1001) FPS
Color space : YUV
Chroma subsampling : 4:2:0
Bit depth : 8 bits
Scan type : Progressive
Bits/(Pixel*Frame) : 0.144
Stream size : 1.22 GiB (83%)
Writing library : x264 core 146 r2538 121396c
Encoding settings : cabac=1 / ref=14 / deblock=1:0:0 / analyse=0x3:0x133 / me=umh / subme=10 / psy=1 / psy_rd=1.00:0.00 / mixed_ref=1 / me_range=24 / chroma_me=1 / trellis=2 / 8x8dct=1 / cqm=0 / deadzone=21,11 / fast_pskip=1 / chroma_qp_offset=-2 / threads=48 / lookahead_threads=5 / sliced_threads=0 / nr=0 / decimate=1 / interlaced=0 / bluray_compat=0 / constrained_intra=0 / bframes=8 / b_pyramid=2 / b_adapt=2 / b_bias=0 / direct=3 / weightb=1 / open_gop=0 / weightp=2 / keyint=250 / keyint_min=23 / scenecut=40 / intra_refresh=0 / rc_lookahead=60 / rc=2pass / mbtree=1 / bitrate=1930 / ratetol=1.0 / qcomp=0.60 / qpmin=0 / qpmax=69 / qpstep=4 / cplxblur=20.0 / qblur=0.5 / ip_ratio=1.40 / aq=1:1.00
Language : English
Default : Yes
Forced : No

Audio #1
ID : 2
Format : AC-3
Format/Info : Audio Coding 3
Mode extension : CM (complete main)
Format settings, Endianness : Big
Codec ID : A_AC3
Duration : 1 h 30 min
Bit rate mode : Constant
Bit rate : 192 kb/s
Channel(s) : 2 channels
Channel positions : Front: L R
Sampling rate : 48.0 kHz
Frame rate : 31.250 FPS (1536 spf)
Bit depth : 16 bits
Compression mode : Lossy
Stream size : 124 MiB (8%)
Language : Russian
Default : Yes
Forced : No

Audio #2
ID : 3
Format : AC-3
Format/Info : Audio Coding 3
Mode extension : CM (complete main)
Format settings, Endianness : Big
Codec ID : A_AC3
Duration : 1 h 30 min
Bit rate mode : Constant
Bit rate : 192 kb/s
Channel(s) : 2 channels
Channel positions : Front: L R
Sampling rate : 48.0 kHz
Frame rate : 31.250 FPS (1536 spf)
Bit depth : 16 bits
Compression mode : Lossy
Stream size : 124 MiB (8%)
Language : English
Default : No
Forced : No

Text
ID : 4
Format : UTF-8
Codec ID : S_TEXT/UTF8
Codec ID/Info : UTF-8 Plain Text
Duration : 1 h 28 min
Bit rate : 84 b/s
Count of elements : 1691
Stream size : 54.3 KiB (0%)
Language : English
Default : No
Forced : No









http://fenixclub.com/index.php?showtopic=1...F1+%B8%E5%E2%FB]
SanSan48, DVDRip, AVI, 640x480, 1.46 GB < > SanSan48, WEB-DLRip, MKV, 864x648, 1.46 GB
http://screenshotcomparison.com/comparison/114349/


МОИ РАЗДАЧИ НА ФЕНИКСе: ЗДЕСЬ




Это сообщение отредактировал SanSan48 - 27.05.2018 - 10:36


--------------------
"Спартак" - ЧЕМПИОН!!!

Скрыть подпись


byroot
№2 Отправлено: 27.05.2018 - 13:23


Неизвестный артефакт

Группа: Потребители
Регистрация: 30.01.2014
Сообщений: 102
Обитает:
Последний раз был:
2.06.2018 - 04:51




Спасибо! Архивы в порядке happy_fly.gif
Top
SanSan48
№3 Отправлено: 27.05.2018 - 13:48


"Спартак" - ЧЕМПИОН!!!

Группа: Пользователи
Регистрация: 28.12.2009
Сообщений: 1901
Обитает:
Последний раз был:
позавчера в 13:29




Цитата
( byroot @ 27.05.2018 - 13:23)
Спасибо! Архивы в порядке happy_fly.gif

byroot, Благодарю за сообщение!


--------------------
"Спартак" - ЧЕМПИОН!!!

Скрыть подпись
Top
tarantas
№4 Отправлено: 8.06.2018 - 13:15


Новичок

Группа: Потребители
Регистрация: 17.06.2011
Сообщений: 91
Последний раз был:
вчера в 15:12




Уважаемый SanSan48!

Случайно нажал кнопку "скачал" вместо "получить линк"...

Прошу Вас восстановить меня в очереди на получение линка.

Спасибо.
Top
SanSan48
№5 Отправлено: 9.06.2018 - 08:37


"Спартак" - ЧЕМПИОН!!!

Группа: Пользователи
Регистрация: 28.12.2009
Сообщений: 1901
Обитает:
Последний раз был:
позавчера в 13:29




Цитата
( tarantas @ 8.06.2018 - 13:15)
Уважаемый SanSan48!

Случайно нажал кнопку "скачал" вместо "получить линк"...

Прошу Вас восстановить меня в очереди на получение линка.

Спасибо.

Вернул в очередь.


--------------------
"Спартак" - ЧЕМПИОН!!!

Скрыть подпись
Top
tarantas
№6 Отправлено: 9.06.2018 - 11:03


Новичок

Группа: Потребители
Регистрация: 17.06.2011
Сообщений: 91
Последний раз был:
вчера в 15:12




Спасибо
Top
1 человек просматривает эту тему (1 гость)
« Предыдущая тема | Зарубежные фильмы | Следующая тема »


 



[Script Execution time: 0,0493]   [23 queries used]   [GZIP enabled]