Заходят многие - остаются лучшие!
Здравствуйте Гость ( Вход | Регистрация ) Выслать повторно письмо для активации
Вход
Ваше имя Пароль Забыли пароль?
Запомнить Вас?
Войти скрытым?



Новые сообщения раздела  

 

 Библейский сюжет. Эдисон Денисов. Лазарь, или Торжество воскрешения (2018), Авторская программа Дмитрия Менделеева
Alevtina
  №1 Отправлено: 8.11.2018 - 21:04


Время камни собирать...

Группа: Аксакалы
Регистрация: 12.02.2009
Сообщений: 5704
Обитает:
Последний раз был:
вчера в 20:07




Библейский сюжет. Эдисон Денисов. "Лазарь, или Торжество воскрешения"



В рамках проекта -

Год выпуска: 2018

Страна: Россия

Режиссер: Ольга Жукова

Студия: ООО Студия "Неофит"

Автор и ведущий: Дмитрий Менделеев


Обращение великих художников к Библии никогда не заканчивалось только иллюстрацией того или иного сюжета Вечной Книги. Оно всегда предполагало личное осмысление. Художник выбирал библейскую историю, чтобы рассказать о себе, о своем времени, чтобы глубже постичь смысл происходящего.
Язык образов Святого Писания был универсален и понятен для всех. Но теперь для нас этот язык наполовину забыт. Мы уже не можем так ясно, с листа, читать всё, что говорили в своих произведениях художники, поэты, композиторы и писатели прошлого. Мы более опираемся на чувственное восприятие, которое все же является только частью замысла, его внешней стороной. В программе "Библейский сюжет" делается попытка соединить "прекрасного разрозненные части", по-другому взглянуть на всемирно известные произведения искусства, рассказать о судьбе их создателей.


Описание:

Из книги воспоминаний Екатерины Купровской "Мой муж Эдисон Денисов": "Авария, в которую Эдисон попал в июле 94-го, перевернула нашу жизнь. В пятницу, 8 числа, он поехал на репетицию, на шоссе ему навстречу выскочил "форд" и врезался в старый "жигулёнок" Денисова. Вот диагноз, данный реанимационным отделением: сотрясение головного мозга, перелом рёбер с пятого по девятое, оскольчатый перелом бедра и костей предплечья, разрыв купола диафрагмы и селезёнки". Три дня он находился в сельской больнице, неподалеку от места аварии. То, что он выжил, это просто чудо, ведь врачи спасли его, можно сказать, голыми руками: оборудование было практически на нуле; а потом Эдисона перевезли в Москву.

В целом он провёл в коме 40 дней, но даже в сознании он, под действием лекарств, никого не узнавал и никак не мог понять, как он оказался в реанимации; это было очень страшно". В таком состоянии, без сознания, его перевезли в Париж и там "подарили" вторую жизнь. Он ещё лежал в больнице, когда к нему пришли с предложением завершить неоконченную музыкальную драму Шуберта – "Лазарь, или Торжество воскрешения".


Media-info:

Format : AVI
Format/Info : Audio Video Interleave
File size : 357 MiB
Duration : 26mn 3s
Overall bit rate : 1 915 Kbps

Video
ID : 0
Format : MPEG-4 Visual
Format profile : Advanced Simple@L5
Format settings, BVOP : Yes
Format settings, QPel : No
Format settings, GMC : No warppoints
Format settings, Matrix : Default (H.263)
Codec ID : XVID
Codec ID/Hint : XviD
Duration : 26mn 3s
Bit rate : 1 774 Kbps
Width : 720 pixels
Height : 400 pixels
Display aspect ratio : 16:9
Frame rate : 25.000 fps
Color space : YUV
Chroma subsampling : 4:2:0
Bit depth : 8 bits
Scan type : Progressive
Bits/(Pixel*Frame) : 0.246
Stream size : 331 MiB (93%)
Writing library : XviD 64

Audio
ID : 1
Format : MPEG Audio
Format version : Version 1
Format profile : Layer 3
Codec ID : 55
Codec ID/Hint : MP3
Duration : 26mn 3s
Bit rate mode : Constant
Bit rate : 128 Kbps
Channel(s) : 2 channels
Sampling rate : 44.1 KHz
Stream size : 23.9 MiB (7%)
Alignment : Split accross interleaves
Interleave, duration : 26 ms (0.65 video frame)


Cкриншоты:







Записались на автоматическое включение в очередь:
baziss, Snara, valbar, vyur, RussianGuy, Marrina, медикус, mosk7, Nadejdaenergia, ILIA, Masjanja, ajlinn, oldfanat, bondsun, mikhailk, medandrey, oster47, Tanjusha, andrusenko, rittaa, medush, rucula

Если вы хотите, чтобы вас автоматически ставили в очередь на следующие выпуски данного цикла, - сообщите об этом в теме последней раздачи.




--------------------

Прохожие, купите Доброту!
Лишь за улыбку! Разве ж это много!
Исполните заветную мечту…
И хоть одну из Заповедей Бога!
Снимите маски «гордых» и «крутых»
Купите, хоть немножечко, Терпенья.
И ощутите сердцем, хоть на миг,
Всю прелесть и восторг благодаренья!
Сегодня, АКЦИЯ на Совесть и Любовь!
Притормозите «хаммер» свой, иль «буммер»!
Купите! И волнуйте свою кровь!
От этого ещё никто не умер!


Скрыть подпись


RussianGuy
№2 Отправлено: 9.11.2018 - 04:05


Завсегдатай

Группа: Потребители
Регистрация: 12.02.2007
Сообщений: 458
Обитает:
Последний раз был:
cегодня в 06:52




Архивы в порядке. Спасибо
Top
Alevtina
№3 Отправлено: 9.11.2018 - 06:16


Время камни собирать...

Группа: Аксакалы
Регистрация: 12.02.2009
Сообщений: 5704
Обитает:
Последний раз был:
вчера в 20:07




RussianGuy, благодарю за сообщение!


--------------------

Прохожие, купите Доброту!
Лишь за улыбку! Разве ж это много!
Исполните заветную мечту…
И хоть одну из Заповедей Бога!
Снимите маски «гордых» и «крутых»
Купите, хоть немножечко, Терпенья.
И ощутите сердцем, хоть на миг,
Всю прелесть и восторг благодаренья!
Сегодня, АКЦИЯ на Совесть и Любовь!
Притормозите «хаммер» свой, иль «буммер»!
Купите! И волнуйте свою кровь!
От этого ещё никто не умер!


Скрыть подпись
Top
1 человек просматривает эту тему (1 гость)
« Предыдущая тема | Мир и люди искусства | Следующая тема »


 



[Script Execution time: 0,0282]   [23 queries used]   [GZIP enabled]