Заходят многие - остаются лучшие!
Здравствуйте Гость ( Вход | Регистрация ) Выслать повторно письмо для активации
Вход
Ваше имя Пароль Забыли пароль?
Запомнить Вас?
Войти скрытым?



 Правила раздела Новые сообщения раздела  


 

 Телохранитель / Bodyguard (1948), Лоуренс Тирни, Присцилла Лэйн / нуар, детектив
surzhoks
  №1 Отправлено: 11.05.2017 - 19:00


Старожил

Группа: Аксакалы
Регистрация: 17.03.2008
Сообщений: 940
Обитает:
Последний раз был:
cегодня в 06:35




Телохранитель / Bodyguard


Страна: США
Студия: RKO Radio Pictures Inc.
Жанр: фильм-нуар, детектив
Год выпуска: 1948
Продолжительность: 01:02:33
Режиссер: Ричард Флайшер / Richard Fleischer
Композитор: Пол Соутелл / Paul Sawtell
В ролях:
Лоуренс Тирни / Lawrence Tierney ... Mike Carter
Присцилла Лэйн / Priscilla Lane ... Doris Brewster
Филип Рид / Phillip Reed ... Freddie Dysen
Джун Клэйуорт / June Clayworth ... Connie Fenton
Элизабет Рисдон / Elisabeth Risdon ... Gene Dysen
Стив Броди / Steve Brodie ... Fenton
Фрэнк Фентон / Frank Fenton ... Lieutenant Borden
Чарльз Кейн / Charles Cane ... Capt. Wayne
Эрвилль Алдерсон / Erville Alderson ... Adam Stone, в титрах не указан
Бобби Барбер / Bobby Barber ... Little Man in Street, в титрах не указан

Описание: Детектива из отдела убийств Майка Картера увольняют из полиции за неповиновение и нарушения устава. Майк получает предложение выполнять обязанности телохранителя Джин Дайсен - владелицы местного мясокомбината. Он неохотно берётся за это задание. Майк начинает расследование обстоятельств странной смерти на территории мясокомбината инспектора, контролировавшего качество мяса. В это же время убивают бывшего начальника Майка из отдела убийств, с которым Майк постоянно ссорился и из-за которого был уволен со службы. Подозрение сразу же падает на Майка...
- Последний фильм в карьере Присциллы Лэйн.


Доп. информация:
Огромное спасибо всем причастным к релизу:
рип - Магда,
перевод фильма - karlivanovich,
озвучивание фильма (по русским субтитрам)- fiendover (Виктор Рутилов),
работа со звуком и реавторинг исходного DVD- AlekceyR76,
финансовая поддержка перевода и озвучивания фильма:
Магда, Lafajet, jasenka, елена 22, yanaelisa, Ugo927, STICK24, sindzi, leoder, HippopotamusIV, spartakeynoir, voostorg, Patsy+

Архивы созданы RAR-архиватором с добавлением 3% на восстановление и снабжены sfv-проверочником.
Просьба к первому скачавшему отписаться о сохранности архивов на источнике раздачи.

Раздача рассчитана на 2 месяца. На просмотр линка и скачивание 5 дней!
В случае если вы встали в очередь, а затем отказываетесь от скачивания без объяснения причин, возможен отказ в последующих моих раздачах.




Полное имя :Bodyguard.avi
Формат : AVI
Формат/Информация : Audio Video Interleave
Размер файла : 1,10 Гбайт
Продолжительность : 1 ч. 2 м.
Общий поток : 2509 Кбит/сек
Программа кодирования : VirtualDubMod 1.5.10.3 | www.virtualdub-fr.org || (build 2550/release)
Библиотека кодирования : VirtualDubMod build 2550/release

Видео
Идентификатор : 0
Формат : MPEG-4 Visual
Профиль формата : Advanced Simple@L5
Параметр BVOP формата : 2
Параметр QPel формата : Нет
Параметр GMC формата : Без точки перехода
Параметр матрицы формата : Default (H.263)
Идентификатор кодека : DX50
Идентификатор кодека/Подсказка : DivX 5
Продолжительность : 1 ч. 2 м.
Битрейт : 2110 Кбит/сек
Ширина : 640 пикселей
Высота : 480 пикселей
Соотношение сторон : 4:3
Частота кадров : 23,976 кадра/сек
Цветовое пространство : YUV
Субдискретизация насыщенности : 4:2:0
Битовая глубина : 8 бит
Тип развёртки : Прогрессивная
Метод сжатия : С потерями
Бит/(Пиксели*Кадры) : 0.287
Размер потока : 944 Мбайт (84%)
Библиотека кодирования : XviD 73

Аудио #1
Идентификатор : 1
Формат : AC-3
Формат/Информация : Audio Coding 3
Расширение режима : CM (complete main)
Параметр Endianness формата : Big
Идентификатор кодека : 2000
Продолжительность : 1 ч. 2 м.
Вид битрейта : Постоянный
Битрейт : 192 Кбит/сек
Каналы : 2 канала
Расположение каналов : Front: L R
Частота : 48,0 КГц
Битовая глубина : 16 бит
Метод сжатия : С потерями
Размер потока : 85,9 Мбайт (8%)
Выравнивание : Разделение по промежуткам
Продолжительность промежутка : 42 мс. (1,00 видеокадр)
Время предзагрузки промежутка : 500 мс.

Аудио #2
Идентификатор : 2
Формат : AC-3
Формат/Информация : Audio Coding 3
Расширение режима : CM (complete main)
Параметр Endianness формата : Big
Идентификатор кодека : 2000
Продолжительность : 1 ч. 2 м.
Вид битрейта : Постоянный
Битрейт : 192 Кбит/сек
Каналы : 2 канала
Расположение каналов : Front: L R
Частота : 48,0 КГц
Битовая глубина : 16 бит
Метод сжатия : С потерями
Размер потока : 85,9 Мбайт (8%)
Выравнивание : Разделение по промежуткам
Продолжительность промежутка : 42 мс. (1,00 видеокадр)
Время предзагрузки промежутка : 500 мс.




--------------------
Искусство откладывать деньги сводится к умению сказать “нет” потребительскому обществу.

Скрыть подпись


SALTAN
№2 Отправлено: 11.05.2017 - 19:28


Herr

Группа: Аксакалы
Регистрация: 19.01.2006
Сообщений: 9546
Последний раз был:
cегодня в 10:45




Архивы в порядке. Спасибо!
Top
1 человек просматривает эту тему (1 гость)
« Предыдущая тема | Зарубежные фильмы | Следующая тема »


 



[Script Execution time: 0,1467]   [22 queries used]   [GZIP enabled]