Заходят многие - остаются лучшие!
Здравствуйте Гость ( Вход | Регистрация ) Выслать повторно письмо для активации
Вход
Ваше имя Пароль Забыли пароль?
Запомнить Вас?
Войти скрытым?



 Правила раздела Новые сообщения раздела  


 

 Нет любви для Джонни / No Love for Johnnie, К 100-летию Дональда Плезенса / драма / Великобритания
surzhoks
  №1 Отправлено: 19.10.2019 - 11:40


Живёт здесь

Группа: Аксакалы
Регистрация: 17.03.2008
Сообщений: 1175
Обитает:
Последний раз был:
9.11.2019 - 12:21




Нет любви для Джонни / No Love for Johnnie


Страна: Великобритания
Студия: Five Star Films Ltd.
Жанр: драма
Год выпуска: 1961
Продолжительность: 01:45:58
Режиссер: Ральф Томас / Ralph Thomas
Композитор: Малкольм Арнольд / Malcolm Arnold

В ролях:
Питер Финч / Peter Finch ... Johnnie Byrne
Стэнли Холлоуэй / Stanley Holloway ... Fred Andrews
Мэри Пич / Mary Peach ... Pauline
Дональд Плезенс / Donald Pleasence ... Roger Renfrew
Билли Уайтлоу / Billie Whitelaw ... Mary
Хью Бёрден / Hugh Burden ... Tim Maxwell
Розали Кратчли / Rosalie Crutchley ... Alice
Майкл Гудлифф / Michael Goodliffe ... Dr. West
Мервин Джонс / Mervyn Johns ... Charlie Young
Джеффри Кин / Geoffrey Keen ... The Prime Minister - Reginald Stevens
Пол Роджерс / Paul Rogers ... Sydney Johnson
Деннис Прайс / Dennis Price ... Flagg

Описание: Популярный сорокадвухлетний политик Джонни Бирн, член лейбористской партии, переизбран в британский парламент. Он не без оснований надеется, что премьер-министр Стивенс предложит ему руководящий пост в правительстве, но Стивенс не торопится... Джонни разочарован и подавлен, он ищет сочувствия и поддержки у Элис, своей жены, которая также увлечена политикой - она член Коммунистической партии. Увы, Элис не желает поддерживать отношения с неудачником, для неё интересы партии важнее личных. Расставшись с женой, Джонни сначала пытается найти утешение в объятиях своей соседки, затем влюбляется в молоденькую фотомодель... И в итоге сталкивается с выбором: бросить карьеру в политике или отказаться от любимой женщины...
Награды и номинации :
Берлинский кинофестиваль, 1961 год
Победитель (1): Серебряный Медведь за лучшую мужскую роль ( Питер Финч )
Номинации (1): Золотой Медведь
Британская академия, 1962 год
Победитель (1): Лучший британский актер ( Питер Финч )

Проект посвящен 100-летию Дональда Плезенса
(5 октября 1919 - 2 февраля 1995)


Доп. информация:
Огромное спасибо всем причастным к релизу:
рип - Магда,
перевод фильма- karlivanovich,
озвучивание фильма (по русским субтитрам)- Матвей Кенс,
работа со звуком - porvaliparus,
финансовая поддержка перевода и озвучивания фильма:
Магда, Lafajet, jasenka, yanaelisa, voostorg, sindzi, cementit, Ugo927, mumzik69, spartakeynoir, goldenday, елена 22

Архивы созданы RAR-архиватором с добавлением 3% на восстановление и снабжены sfv-проверочником.
Просьба к первому скачавшему отписаться о сохранности архивов на источнике раздачи.

Раздача рассчитана на 2 месяца. На просмотр линка и скачивание 5 дней!
В случае если вы встали в очередь, а затем отказываетесь от скачивания без объяснения причин, возможен отказ в последующих моих раздачах.



Полное имя :No Love For Johnnie.avi
Формат : AVI
Формат/Информация : Audio Video Interleave
Размер файла : 1,46 Гбайт
Продолжительность : 1 ч. 45 м.
Общий поток : 1972 Кбит/сек
Программа кодирования : VirtualDubMod 1.5.10.3 | www.virtualdub-fr.org || (build 2550/release)
Библиотека кодирования : VirtualDubMod build 2550/release

Видео
Идентификатор : 0
Формат : MPEG-4 Visual
Профиль формата : Advanced Simple@L5
Параметр BVOP формата : 2
Параметр QPel формата : Нет
Параметр GMC формата : Без точки перехода
Параметр матрицы формата : Default (H.263)
Идентификатор кодека : XVID
Идентификатор кодека/Подсказка : XviD
Продолжительность : 1 ч. 45 м.
Битрейт : 1574 Кбит/сек
Ширина : 688 пикселей
Высота : 288 пикселей
Соотношение сторон : 2,40:1
Частота кадров : 25,000 кадров/сек
Цветовое пространство : YUV
Субдискретизация насыщенности : 4:2:0
Битовая глубина : 8 бит
Тип развёртки : Прогрессивная
Метод сжатия : С потерями
Бит/(Пиксели*Кадры) : 0.318
Размер потока : 1,16 Гбайт (80%)
Библиотека кодирования : XviD 73

Аудио #1
Идентификатор : 1
Формат : AC-3
Формат/Информация : Audio Coding 3
Расширение режима : CM (complete main)
Параметр Endianness формата : Big
Идентификатор кодека : 2000
Продолжительность : 1 ч. 45 м.
Вид битрейта : Постоянный
Битрейт : 192 Кбит/сек
Каналы : 2 канала
Расположение каналов : Front: L R
Частота : 48,0 КГц
Битовая глубина : 16 бит
Метод сжатия : С потерями
Размер потока : 146 Мбайт (10%)
Выравнивание : Разделение по промежуткам
Продолжительность промежутка : 40 мс. (1,00 видеокадр)
Время предзагрузки промежутка : 500 мс.

Аудио #2
Идентификатор : 2
Формат : AC-3
Формат/Информация : Audio Coding 3
Расширение режима : CM (complete main)
Параметр Endianness формата : Big
Идентификатор кодека : 2000
Продолжительность : 1 ч. 45 м.
Вид битрейта : Постоянный
Битрейт : 192 Кбит/сек
Каналы : 2 канала
Расположение каналов : Front: L R
Частота : 48,0 КГц
Битовая глубина : 16 бит
Метод сжатия : С потерями
Размер потока : 146 Мбайт (10%)
Выравнивание : Разделение по промежуткам
Продолжительность промежутка : 40 мс. (1,00 видеокадр)
Время предзагрузки промежутка : 500 мс.




Это сообщение отредактировал surzhoks - 19.10.2019 - 11:41


vjub58
№2 Отправлено: 19.10.2019 - 12:54


Практикующий эсквайр

Группа: Аксакалы
Регистрация: 6.12.2005
Сообщений: 5271
Обитает:
Последний раз был:
cегодня в 01:20




Спасибо, все ОК. pozdrav_buket.gif
Top
1 человек просматривает эту тему (1 гость)
« Предыдущая тема | Зарубежные фильмы | Следующая тема »


 



[Script Execution time: 0,0618]   [23 queries used]   [GZIP enabled]