Заходят многие - остаются лучшие!
Здравствуйте Гость ( Вход | Регистрация ) Выслать повторно письмо для активации
Вход
Ваше имя Пароль Забыли пароль?
Запомнить Вас?
Войти скрытым?



 Правила раздела Новые сообщения раздела  


 

 День дельфина / The Day of the Dolphin [Полная версия] (1973), Фантастика,драма;Реж.-М.Николс;Роли-Дж.К.Скотт,Т.ВанДеверле,П.Сорвино
SanSan48
  №1 Отправлено: 22.04.2020 - 08:41


"Спартак" - ЧЕМПИОН!!!

Группа: Пользователи
Регистрация: 28.12.2009
Сообщений: 2156
Обитает:
Последний раз был:
8.07.2020 - 19:25




День дельфина / The Day of the Dolphin [Полная версия] (1973)



Предыдущие раздачи:
11.11.2017 (DVDRip)
04.03.2011 (DVDRip)
11.05.2008 (DVDRip)
02.07.2008 (DVDRip) (Архив)

Жанр: Фантастика, драма
Выпущено: США, AVCO Embassy Pictures
Год выпуска: 1973
Премьера (мир): 19 декабря 1973 (США), 29 марта 1974 (Дания), 2 мая 1974 (Аргентина), 8 июня 1974 (Япония)
Премьера (СССР): 1 декабря 1975
Сценарист: Бак Генри / Buck Henry
Оператор: Уильям А. Фрейкер / William A. Fraker
Композитор: Жорж Делерю / Georges Delerue
Художники: Ричард Силберт / Richard Sylbert, Анджело П. Грэхэм / Angelo P. Graham, Антея Силберт / Anthea Sylbert, Джордж Р. Нельсон / George R. Nelson
Монтажёр: Сэм О’Стин / Sam O'Steen

Режиссёр: Майк Николс / Mike Nichols

В ролях:
Джордж К. Скотт / George C. Scott ... Jake Terrell - дублирует Феликс Яворский
Триш Ван Девере / Trish Van Devere ... Maggie Terrell - дублирует Тамара Сёмина
Пол Сорвино / Paul Sorvino ... Curtis Mahoney - дублирует Владимир Ферапонтов
Фриц Уивер / Fritz Weaver ... Harold DeMilo - дублирует Артем Карапетян
Джон Денер / John Dehner ... Wallingford
Северн Дарден / Severn Darden ... Schwinn
Элизабет Уилсон / Elizabeth Wilson ... Mrs. Rome
Уильям Рорик / William Roerick ... Dunhill
Филлис Дэвис / Phyllis Davis ... Receptionist
Пэт Зурика / Pat Zurica ... First Mate
Джон Коркс / Jon Korkes ... David
Эдвард Херрманн / Edward Herrmann ... Mike
Лесли Чарлсон / Leslie Charleson ... Maryanne
Виктория Расимо / Victoria Racimo ... Lana
Джон Дэвид Карсон / John David Carson ... Larry
Уилли Майерс / Willie Myers ... Stone

Описание: По научно-фантастическому роману Робера Мерля (Robert Merle) "Разумное животное" ("Un animal doue de raison").
На небольшом острове расположился Центр морской биологии доктора Терелла. Предмет исследования ученых — дельфины-афалины и поиск средств общения с ними. Родившийся в неволе дельфин Альфа научился не только понимать Терелла, но и повторять простые слова. Спонсоры Терелла решили использовать достижения ученого в своих преступных целях. С помощью сотрудника лаборатории Дэйвида они похитили Альфу и его подругу Бету и, убедившись в способности дельфинов взрывать «корабли противника», решили использовать их. Но умные животные, подорвав судно похитителей, приплыли к друзьям, на остров. Терелл понял, что мирный Центр будет закрыт, и выпустил своих питомцев в открытый океан…

Дополнительная информация: Релиз:

Исходник найден в сети.

Автор рипа: pmv

Большое спасибо за:
- советский дубляж – dsz, xfiles
- аудиодорожку с советским дубляжом и вставками одноголоски - dumatnado
- синхронизацию аудиодорожки - pmv

Фильм дублирован на киностудии «Мосфильм» в 1975 году и выпущен в прокат 1 декабря 1975 года.
Режиссёр дубляжа: Евгений Алексеев
Звукооператор: В.Кузнецов
Русскй синхронный текст: Г.Петрова
Редактор: Л.Балашова
Роли дублировали: Феликс Яворский, Тамара Сёмина, Владимир Ферапонтов, Артем Карапетян

* Награды и номинации:
Оскар, 1974 год
Номинации (2):
- Лучший звук
- Лучший саундтрек к драматическому фильму
Золотой глобус, 1974 год
Номинации (1):
- Лучший саундтрек
Сатурн, 1975 год
Номинации (1):
- Золотой свиток - лучший научно-фантастический фильм

* Представленная в данной раздаче полная версия фильма содержит советский дубляж и вставки одноголосого перевода на пропущенные в дубляже эпизоды.

IMDb = 6,1/10 (2569) - https://www.imdb.com/title/tt0069946/
Кинопоиск = 6.252 (276) - https://www.kinopoisk.ru/film/10958/

ВНИМАНИЕ!!! РИП ФОРМАТА mkv (кодек H.264) ВОСПРОИЗВОДИТСЯ НЕ НА ВСЕХ БЫТОВЫХ ВИДЕОПЛЕЕРАХ!!!

Параметры файла:
Название: Day Of The Dolphin (1973, rus_dub+eng+eng_sub).mkv
Качество видео: HDRip-AVC
Формат видео: MKV
Размер: 1,46 ГБ (1 576 736 848 байт)
Продолжительность: 01:44:47
Перевод: Профессиональный (дублированный) – советский дубляж к/с «Мосфильм» + вставки VO
Субтитры: английские (SDH)
Оригинальная аудиодорожка: английский
Видео: AVC (H264), 1152x490 (2.35:1), 23.976 fps, 1620 kbps, 0.120 Bits/Pixel
Аудио #1: AC3, 48 KHz, stereo (2 ch), 192 kbps – советский дубляж + вставки VO
Аудио #2: AC3, 48 KHz, stereo (2 ch), 192 kbps - английский



General
Unique ID : 271325509636570971083610510610810574010 (0xCC1F64724369306D71C032B9414494BA)
Complete name : D:\torrents\The Day Of The Dolphin (1973, rus_dub+eng+eng_sub).mkv
Format : Matroska
Format version : Version 4 / Version 2
File size : 1.47 GiB
Duration : 1 h 44 min
Overall bit rate : 2 006 kb/s
Encoded date : UTC 2020-04-17 17:08:27
Writing application : mkvmerge v45.0.0 ('Heaven in Pennies') 64-bit
Writing library : libebml v1.3.10 + libmatroska v1.5.2

Video
ID : 1
Format : AVC
Format/Info : Advanced Video Codec
Format profile : High@L4.1
Format settings, CABAC : Yes
Format settings, RefFrames : 8 frames
Codec ID : V_MPEG4/ISO/AVC
Duration : 1 h 44 min
Bit rate : 1 620 kb/s
Width : 1 152 pixels
Height : 490 pixels
Display aspect ratio : 2.35:1
Frame rate mode : Constant
Frame rate : 23.976 (24000/1001) FPS
Color space : YUV
Chroma subsampling : 4:2:0
Bit depth : 8 bits
Scan type : Progressive
Bits/(Pixel*Frame) : 0.120
Stream size : 1.19 GiB (81%)
Title : The.Day.Of.The.Dolphin.1973.1080p.BluRay.x264.DTS-FGT
Writing library : x264 core 157 r2958 57baac4
Encoding settings : cabac=1 / ref=8 / deblock=1:-1:-1 / analyse=0x3:0x133 / me=umh / subme=9 / psy=1 / psy_rd=1.00:0.00 / mixed_ref=1 / me_range=24 / chroma_me=1 / trellis=2 / 8x8dct=1 / cqm=0 / deadzone=21,11 / fast_pskip=1 / chroma_qp_offset=-2 / threads=15 / lookahead_threads=2 / sliced_threads=0 / nr=0 / decimate=1 / interlaced=0 / bluray_compat=0 / constrained_intra=0 / bframes=7 / b_pyramid=2 / b_adapt=2 / b_bias=0 / direct=3 / weightb=1 / open_gop=0 / weightp=2 / keyint=10 / keyint_min=6 / scenecut=40 / intra_refresh=0 / rc_lookahead=10 / rc=2pass / mbtree=1 / bitrate=1620 / ratetol=1.0 / qcomp=0.60 / qpmin=0 / qpmax=69 / qpstep=4 / cplxblur=20.0 / qblur=0.5 / ip_ratio=1.40 / aq=1:1.00
Language : English
Default : Yes
Forced : No

Audio #1
ID : 2
Format : AC-3
Format/Info : Audio Coding 3
Format settings, Endianness : Big
Codec ID : A_AC3
Duration : 1 h 44 min
Bit rate mode : Constant
Bit rate : 192 kb/s
Channel(s) : 2 channels
Channel positions : Front: L R
Sampling rate : 48.0 kHz
Frame rate : 31.250 FPS (1536 SPF)
Bit depth : 16 bits
Compression mode : Lossy
Stream size : 144 MiB (10%)
Language : Russian
Service kind : Complete Main
Default : Yes
Forced : No

Audio #2
ID : 3
Format : AC-3
Format/Info : Audio Coding 3
Format settings, Endianness : Big
Codec ID : A_AC3
Duration : 1 h 44 min
Bit rate mode : Constant
Bit rate : 192 kb/s
Channel(s) : 2 channels
Channel positions : Front: L R
Sampling rate : 48.0 kHz
Frame rate : 31.250 FPS (1536 SPF)
Bit depth : 16 bits
Compression mode : Lossy
Stream size : 144 MiB (10%)
Language : English
Service kind : Complete Main
Default : No
Forced : No

Text
ID : 4
Format : UTF-8
Codec ID : S_TEXT/UTF8
Codec ID/Info : UTF-8 Plain Text
Duration : 1 h 41 min
Bit rate : 47 b/s
Count of elements : 1343
Stream size : 35.1 KiB (0%)
Language : English
Default : No
Forced : No







МОИ РАЗДАЧИ НА ФЕНИКСе: ЗДЕСЬ




Это сообщение отредактировал SanSan48 - 22.04.2020 - 11:46


--------------------
"Спартак" - ЧЕМПИОН!!!

Скрыть подпись


sman
№2 Отправлено: 22.04.2020 - 11:09


Новичок

Группа: Потребители
Регистрация: 5.04.2007
Сообщений: 62
Обитает:
Последний раз был:
вчера в 13:10




У меня почему-то пишет неверный пароль pain25.gif
Top
SanSan48
№3 Отправлено: 22.04.2020 - 11:24


"Спартак" - ЧЕМПИОН!!!

Группа: Пользователи
Регистрация: 28.12.2009
Сообщений: 2156
Обитает:
Последний раз был:
8.07.2020 - 19:25




sman, у Вас скорее всего используете старый архиватор.

Сейчас перезалью архив со старым архиватором.


--------------------
"Спартак" - ЧЕМПИОН!!!

Скрыть подпись
Top
WILLIJAN
  №4 Отправлено: 22.04.2020 - 11:29


Посетитель

Группа: Потребители
Регистрация: 18.02.2007
Сообщений: 216
Обитает:
Последний раз был:
28.06.2020 - 06:41




Показывает ошыбку архивов,не розпаковываетсья, востановите роздачу чтоб скачать перезалитое


Это сообщение отредактировал WILLIJAN - 22.04.2020 - 11:45
Top
SanSan48
№5 Отправлено: 22.04.2020 - 11:43


"Спартак" - ЧЕМПИОН!!!

Группа: Пользователи
Регистрация: 28.12.2009
Сообщений: 2156
Обитает:
Последний раз был:
8.07.2020 - 19:25




Цитата
WILLIJAN @ 22.04.2020 - 11:29
Показывает ошыбку архивов,не розпаковываетсья

Доступна новая ссылка и пароль.
Всех скачавших вернул в очередь .
Просьба скачать архив заново.

Приношу извинения за доставленные неудобства.



Это сообщение отредактировал SanSan48 - 22.04.2020 - 11:50


--------------------
"Спартак" - ЧЕМПИОН!!!

Скрыть подпись
Top
WILLIJAN
№6 Отправлено: 22.04.2020 - 11:54


Посетитель

Группа: Потребители
Регистрация: 18.02.2007
Сообщений: 216
Обитает:
Последний раз был:
28.06.2020 - 06:41




Спасибо большое,все ОК!
Top
Sasha_65
№7 Отправлено: 22.04.2020 - 12:37


Новичок

Группа: Потребители
Регистрация: 20.02.2009
Сообщений: 96
Обитает:
Последний раз был:
вчера в 18:28




Архивы в порядке. Благодарствуйте!!!
Top
sman
№8 Отправлено: 22.04.2020 - 13:57


Новичок

Группа: Потребители
Регистрация: 5.04.2007
Сообщений: 62
Обитает:
Последний раз был:
вчера в 13:10




Все в порядке, спасибо!
Top
mikead
№9 Отправлено: 25.04.2020 - 08:05


Гость

Группа: Новички
Регистрация: 23.08.2008
Сообщений: 1
Обитает:
Последний раз был:
6.05.2020 - 05:26




Скачал, распаковал, с архивами полный порядок!


Это сообщение отредактировал mikead - 25.04.2020 - 08:10
Top
1 человек просматривает эту тему (1 гость)
« Предыдущая тема | Советский дубляж | Следующая тема »


 



[Script Execution time: 0,0565]   [24 queries used]   [GZIP enabled]