Заходят многие - остаются лучшие!
Здравствуйте Гость ( Вход | Регистрация ) Выслать повторно письмо для активации
Вход
Ваше имя Пароль Забыли пароль?
Запомнить Вас?
Войти скрытым?



 Правила раздела Новые сообщения раздела  


 

 Брависсимо / Bravissimo (1955), Комедия;Реж.-Л.Ф.д’Амико;Роли-А.Сорди,Дж.Дзарфати,П.Д.Ровере
SanSan48
  №1 Отправлено: 22.04.2020 - 09:05


"Спартак" - ЧЕМПИОН!!!

Группа: Пользователи
Регистрация: 28.12.2009
Сообщений: 2156
Обитает:
Последний раз был:
8.07.2020 - 19:25




Брависсимо / Bravissimo (1955)



Предыдущая раздача:
20.03.2013 (DVDRip)]

Жанр: Комедия
Выпущено: Италия
Год выпуска: 1955
Премьера (мир): 22 ноября 1955 (Италия), 23 октября 1984 (Германия (ГДР))
Сценаристы: Луиджи Филиппо д’Амико / Luigi Filippo D'Amico, Адженоре Инкроччи / Agenore Incrocci, Фурио Скарпелли / Furio Scarpelli
Оператор: Марко Скарпелли / Marco Scarpelli
Композиторы: Анджело Франческо Лаваньино / Angelo Francesco Lavagnino, Армандо Тровайоли / Armando Trovajoli
Художники: Франко Лолли / Franco Lolli, Ориетта Насалли-Рокка / Orietta Nasalli-Rocca
Монтажёр: Марио Серандреи / Mario Serandrei

Режиссёр: Луиджи Филиппо д’Амико / Luigi Filippo D'Amico

В ролях:
Альберто Сорди / Alberto Sordi ... Ubaldo Impallato
Джанкарло Дзарфати / Giancarlo Zarfati ... Gigetto
Патриция Делла Ровере / Patrizia Della Rovere ... Aunt Rosetta
Ирен Цефаро / Irene Cefaro ... Egle
Ирен Тунк / Irène Tunc ... Dominique
Рикарда Момо / Riccarda Momo ... Christine, the little girl
Марио Рива / Mario Riva ... Dance teacher
Джанрико Тедески / Gianrico Tedeschi ... Theatre impresario
Тури Пандольфини / Turi Pandolfini ... Arturo Pandolfino
Диана Деи / Diana Dei ... Dance teacher's wife
Клаудио Эрмели / Claudio Ermelli ... Conductor #1
Зои Инкроччи / Zoe Incrocci ... Margherita
Амалия Пеллегрини / Amalia Pellegrini ... Mother of Maestro di Musica
Карло Маццарелла / Carlo Mazzarella ... A passerby
Марчелла Ровена / Marcella Rovena ... Egle's mother
Рольф Тасна / Rolf Tasna ... Christine's father

Описание: Безработный учитель Убальдо Импаллато (Альберто Сорди) подрабатывает, замещая заболевших в школе учителей, что случается очень редко. Чтобы хоть как-то свести концы с концами он организовывает группу детей дошкольников, за которыми присматривает. Однажды за одним мальчиком не пришел отец. И заботы по воспитанию ребенка легли на плечи Умбальдо. Но неожиданно обнаруживается, что маленький Джиджетто обладает прекрасным баритоном. Перед Умбальдо открываются прекрасные перспективы...

Дополнительная информация:
Релиз:

Исходник найден в сети.

Автор рипа: pmv

Большое спасибо за:
- звуковую аудиодорожку с русской озвучкой (https://rut-rac-ker.org/forum/viewtopic.php?t=5853785) - Pigy
- синхронизацию звуковой аудиодорожки - pmv

* Предлагаем всем насладиться прекрасным фильмом-комедией с непревзойденным и великим итальянцем Альберто Сорди в главной роли. Он раскрывается в этом фильме во всём своём таланте комедийного актера. Прошло 65 лет после создания фильма, а смотрится на одном дыханье.

IMDb = 6,6/10 (147) - https://www.imdb.com/title/tt0047896/
Кинопоиск = - (14) - https://www.kinopoisk.ru/film/56777/

ВНИМАНИЕ!!! РИП ФОРМАТА mkv (кодек H.264) ВОСПРОИЗВОДИТСЯ НЕ НА ВСЕХ БЫТОВЫХ ВИДЕОПЛЕЕРАХ!!!

Параметры файла:
Название: Bravissimo (1955, rus_VO+ita+eng_sub).mkv
Качество видео: WEB-DLRip-AVC
Формат видео: MKV
Размер: 1,45 ГБ (1 566 186 869 байт)
Продолжительность: 01:35:30
Перевод: Одноголосый закадровый - Семён Ващенко
Субтитры: английские (SDH)
Оригинальная аудиодорожка: итальянский
Видео: AVC (H264), 864x648 (4:3), 24 fps, 1800 kbps, 0.134 Bits/Pixel
Аудио #1: AC3, 48 kHz, stereo (2 ch), 192 kbps – русский
Аудио #2: AC3, 48 kHz, stereo (2 ch), 192 kbps - итальянский



General
Unique ID : 50597042659199986504177528568899686617 (0x2610A2CDFA70B79571FE8479D6DFD0D9)
Complete name : D:\torrents\Bravissimo (1955, rus_VO+ita+eng_sub).mkv
Format : Matroska
Format version : Version 4 / Version 2
File size : 1.46 GiB
Duration : 1 h 35 min
Overall bit rate : 2 187 kb/s
Encoded date : UTC 2020-04-21 11:15:06
Writing application : mkvmerge v45.0.0 ('Heaven in Pennies') 64-bit
Writing library : libebml v1.3.10 + libmatroska v1.5.2

Video
ID : 1
Format : AVC
Format/Info : Advanced Video Codec
Format profile : High@L4.1
Format settings, CABAC : Yes
Format settings, RefFrames : 8 frames
Codec ID : V_MPEG4/ISO/AVC
Duration : 1 h 35 min
Bit rate : 1 800 kb/s
Width : 864 pixels
Height : 648 pixels
Display aspect ratio : 4:3
Frame rate mode : Constant
Frame rate : 24.000 FPS
Color space : YUV
Chroma subsampling : 4:2:0
Bit depth : 8 bits
Scan type : Progressive
Bits/(Pixel*Frame) : 0.134
Stream size : 1.20 GiB (82%)
Writing library : x264 core 157 r2958 57baac4
Encoding settings : cabac=1 / ref=8 / deblock=1:-1:-1 / analyse=0x3:0x133 / me=umh / subme=9 / psy=1 / psy_rd=1.00:0.00 / mixed_ref=1 / me_range=24 / chroma_me=1 / trellis=2 / 8x8dct=1 / cqm=0 / deadzone=21,11 / fast_pskip=1 / chroma_qp_offset=-2 / threads=20 / lookahead_threads=3 / sliced_threads=0 / nr=0 / decimate=1 / interlaced=0 / bluray_compat=0 / constrained_intra=0 / bframes=7 / b_pyramid=2 / b_adapt=2 / b_bias=0 / direct=3 / weightb=1 / open_gop=0 / weightp=2 / keyint=10 / keyint_min=6 / scenecut=40 / intra_refresh=0 / rc_lookahead=10 / rc=2pass / mbtree=1 / bitrate=1800 / ratetol=1.0 / qcomp=0.60 / qpmin=0 / qpmax=69 / qpstep=4 / cplxblur=20.0 / qblur=0.5 / ip_ratio=1.40 / aq=1:1.00
Language : Italian
Default : Yes
Forced : No
Color range : Limited
Color primaries : BT.709
Transfer characteristics : BT.709
Matrix coefficients : BT.709

Audio #1
ID : 2
Format : AC-3
Format/Info : Audio Coding 3
Format settings, Endianness : Big
Codec ID : A_AC3
Duration : 1 h 35 min
Bit rate mode : Constant
Bit rate : 192 kb/s
Channel(s) : 2 channels
Channel positions : Front: L R
Sampling rate : 48.0 kHz
Frame rate : 31.250 FPS (1536 SPF)
Bit depth : 16 bits
Compression mode : Lossy
Stream size : 131 MiB (9%)
Language : Russian
Service kind : Complete Main
Default : Yes
Forced : No

Audio #2
ID : 3
Format : AC-3
Format/Info : Audio Coding 3
Format settings, Endianness : Big
Codec ID : A_AC3
Duration : 1 h 35 min
Bit rate mode : Constant
Bit rate : 192 kb/s
Channel(s) : 2 channels
Channel positions : Front: L R
Sampling rate : 48.0 kHz
Frame rate : 31.250 FPS (1536 SPF)
Bit depth : 16 bits
Compression mode : Lossy
Stream size : 131 MiB (9%)
Language : Italian
Service kind : Complete Main
Default : No
Forced : No

Text
ID : 4
Format : UTF-8
Codec ID : S_TEXT/UTF8
Codec ID/Info : UTF-8 Plain Text
Duration : 1 h 34 min
Bit rate : 65 b/s
Count of elements : 1168
Stream size : 45.7 KiB (0%)
Title : SDH
Language : English
Default : No
Forced : No







МОИ РАЗДАЧИ НА ФЕНИКСе: ЗДЕСЬ




Это сообщение отредактировал SanSan48 - 22.04.2020 - 09:07


--------------------
"Спартак" - ЧЕМПИОН!!!

Скрыть подпись


Lirichny
№2 Отправлено: 22.04.2020 - 12:50


Посетитель

Группа: Форумчане
Регистрация: 20.11.2008
Сообщений: 298
Последний раз был:
вчера в 03:49




все Закчалось и собралось kap.gif
Top
SanSan48
№3 Отправлено: 22.04.2020 - 15:28


"Спартак" - ЧЕМПИОН!!!

Группа: Пользователи
Регистрация: 28.12.2009
Сообщений: 2156
Обитает:
Последний раз был:
8.07.2020 - 19:25




Цитата
( Lirichny @ 22.04.2020 - 12:50)
все Закчалось и собралось kap.gif

Lirichny, Благодарю за информацию!

Приятного всем просмотра!


--------------------
"Спартак" - ЧЕМПИОН!!!

Скрыть подпись
Top
1 человек просматривает эту тему (1 гость)
« Предыдущая тема | Зарубежные фильмы | Следующая тема »


 



[Script Execution time: 0,0595]   [24 queries used]   [GZIP enabled]