Заходят многие - остаются лучшие!
Здравствуйте Гость ( Вход | Регистрация ) Выслать повторно письмо для активации
Вход
Ваше имя Пароль Забыли пароль?
Запомнить Вас?
Войти скрытым?



 Правила раздела Новые сообщения раздела  


 

 Аткинс / Atkins (1985), Вестерн,драма;Реж.-Х.Тримперт;Роли-О.Борисов,П.Циммерман,К.Рэуту
SanSan48
  №1 Отправлено: 27.12.2017 - 12:43


"Спартак" - ЧЕМПИОН!!!

Группа: Пользователи
Регистрация: 28.12.2009
Сообщений: 1892
Обитает:
Последний раз был:
вчера в 21:32




Аткинс / Atkins (1985)



Предыдущая раздача:
14.06.2008 (DVDrip)

Жанр: Вестерн, драма
Выпущено: ГДР, Румыния, DEFA (Киностудия «Дефа»), Buftea Studios (киностудия "Бухарест")
Год выпуска: 1985
Премьера (мир): 29 августа 1985 (Германия (ГДР))
Премьера (СССР): январь 1987
Сценарист: Стефан Кольдитц / Stefan Kolditz
Операторы: Петер Бранд / Peter Brand
Композитор: Юрген Керт / Jürgen Kehrt
Художники: Эрих Крюльке / Erich Krüllke, Вернер Бергеманн / Werner Bergemann, Фидес Йопптен / Fides Joppien
Монтажёр: Теа Рихтер / Thea Richter

Режиссёр: Хельге Тримперт / Helge Trimpert

В ролях:
Олег Борисов ... Atkins
Петер Циммерман / Peter Zimmermann ... Morris
Коля Рэуту / Colea Răutu ... Der Alte
Барбара Диттус / Barbara Dittus ... Rose
Маргит Бендокат / Margit Bendokat ... Emilie
Керстин Хайне / Kerstin Heine ... Clytie
Хольгер Франке / Holger Franke ...
Петер Хайланд / Peter Heiland ...
Василь Нитулеску / Vasile Nitulescu ...
Папил Пандуру / Papil Panduru ...
Аксель Вернер / Axel Werner ...

Описание: События происходят в 1898 году в Северной Америке. Охотник Том Аткинс возвращается в места своей молодости, чтобы провести здесь оставшиеся годы. Но в горной долине поселилось небольшое племя индейцев, тщательно скрывающее свое пристанище от белых людей. Вождь племени предлагает Аткинсу остаться с ними. Тот принимает предложение. Однажды в уединенное поселение проникает геолог Моррис. Неподалеку от этих мест он обнаруживает богатейшие залежи меди. Моррис уговаривает Аткинса стать его компаньоном. Но тот не может предать поверивших ему индейцев. Моррис покидает долину один. Когда он вернется сюда с вооруженным отрядом, Аткинс с ружьем в руках преградит им путь...

Дополнительная информация: Релиз:

Исходник найден в сети.

Автор рипа: pmv

* В салуне звучит музыка "Vieni sul mar", исполняемая Энрико Карузо (Enrico Caruso).

* В данной раздаче представлены 2 рипа: советская прокатная копия формата AVI и полная версия фильма со вставками на неозвученные фрагменты формата MKV.

Фильм дублирован на киностудии им. М.Горького в 1986 году и выпущен в прокат в январе 1987 года.
Режиссёр дубляжа: Галина Водяницкая
Звукооператор: Николай Озорнов
Автор литературного перевода: Ирина Ус
Редактор: Ольга Палатникова
Роли дублировали: Владимир Смирнов, Галина Булкина, Николай Граббе, Рудольф Панков, Сергей Мартынов, Тимофей Спивак

IMDb = 6,0/10 (25) - http://www.imdb.com/title/tt0202800/
Кинопоиск = 5.947 (59) - https://www.kinopoisk.ru/film/atkins-1985-149497/

Параметры файла:
Название: Аткинс (1985).avi
Качество видео: DVDrip-AVC
Формат видео: MKV
Размер: 735.10 Mb ( 770 810 590 bytes )
Продолжительность: 01:20:49.120 (121228 frames)
Перевод: Профессиональный (дублированный) - советский дубляж
Видео: 704x480 (1.47:1), 25 fps, XviD build 73 ~1133 kbps avg, 0.13 bit/pixel
Аудио: 48 kHz, MPEG Layer 3, 2 ch, ~128.00 kbps avg - советский дубляж



General
Complete name : D:\torrents\Аткинс (1985).avi
Format : AVI
Format/Info : Audio Video Interleave
File size : 735 MiB
Duration : 1 h 20 min
Overall bit rate : 1 272 kb/s
Writing application : VirtualDubMod 1.5.10.3 | www.virtualdub-fr.org || (build 2550/release)
Writing library : VirtualDub build 35576/release

Video
ID : 0
Format : MPEG-4 Visual
Format profile : Advanced Simple@L5
Format settings, BVOP : 2
Format settings, QPel : No
Format settings, GMC : No warppoints
Format settings, Matrix : Default (H.263)
Codec ID : XVID
Codec ID/Hint : XviD
Duration : 1 h 20 min
Bit rate : 1 134 kb/s
Width : 704 pixels
Height : 480 pixels
Display aspect ratio : 3:2
Frame rate : 25.000 FPS
Color space : YUV
Chroma subsampling : 4:2:0
Bit depth : 8 bits
Scan type : Progressive
Compression mode : Lossy
Bits/(Pixel*Frame) : 0.134
Stream size : 656 MiB (89%)
Writing library : XviD 73

Audio
ID : 1
Format : MPEG Audio
Format version : Version 1
Format profile : Layer 3
Mode : Joint stereo
Codec ID : 55
Codec ID/Hint : MP3
Duration : 1 h 20 min
Bit rate mode : Constant
Bit rate : 128 kb/s
Channel(s) : 2 channels
Sampling rate : 48.0 kHz
Compression mode : Lossy
Delay relative to video : 100 ms
Stream size : 74.0 MiB (10%)
Alignment : Split accross interleaves
Interleave, duration : 40 ms (1.00 video frame)
Interleave, preload duration : 500 ms








В ДАННОЙ РАЗДАЧЕ ПРЕДСТАВЛЕНА ТАКЖЕ ПОЛНАЯ ВЕРСИЯ ФИЛЬМА С ВСТАВКАМИ НА НЕОЗВУЧЕННЫЕ В ДУБЛЯЖЕ ФРАГМЕНТЫ. ФОРМАТ ФАЙЛА MKV. ИНФОРМАЦИЮ ОБ ЭТОМ РИПЕ СМОТРИТЕ ПОД СПОЙЛЕРОМ.



* Содержит советский дубляж и вставки на пропущенные фрагменты - озвучка актёра театра Моссовета Романа Кириллова)

ВНИМАНИЕ!!! РИП ФОРМАТА mkv (кодек H.264) ВОСПРОИЗВОДИТСЯ НЕ НА ВСЕХ БЫТОВЫХ ВИДЕОПЛЕЕРАХ!!!

Параметры файла:
Название: Аткинс Дефа 1985.mkv
Качество видео: WEB-DLrip
Формат видео: MKV
Размер: 744 МБ (780 297 433 байт)
Продолжительность: 01:30:13
Перевод: Профессиональный (дублированный) - советский дубляж
Видео: AVC (H264), 720x416 (1.77:1), 23.976 fps, 960 kbps, 0.134 Bits/Pixel
Аудио: AC3, 44.1 kHz, stereo (2 ch), 192 kbps – советский дубляж



General
Unique ID : 87571053021362414241065498066022871216 (0x41E19242857C3A0A985263856CA8B0B0)
Complete name : D:\torrents\Аткинс Дефа 1985.mkv
Format : Matroska
Format version : Version 4 / Version 2
File size : 744 MiB
Duration : 1 h 30 min
Overall bit rate : 1 153 kb/s
Encoded date : UTC 2017-12-23 07:32:34
Writing application : mkvmerge v19.0.0 ('Brave Captain') 64-bit
Writing library : libebml v1.3.5 + libmatroska v1.4.8

Video
ID : 1
Format : AVC
Format/Info : Advanced Video Codec
Format profile : High@L4.1
Format settings, CABAC : Yes
Format settings, ReFrames : 16 frames
Codec ID : V_MPEG4/ISO/AVC
Duration : 1 h 30 min
Bit rate : 960 kb/s
Width : 720 pixels
Height : 416 pixels
Display aspect ratio : 1.731
Frame rate mode : Constant
Frame rate : 23.976 (24000/1001) FPS
Color space : YUV
Chroma subsampling : 4:2:0
Bit depth : 8 bits
Scan type : Progressive
Bits/(Pixel*Frame) : 0.134
Stream size : 619 MiB (83%)
Writing library : x264 core 146 r2538 121396c
Encoding settings : cabac=1 / ref=16 / deblock=1:0:0 / analyse=0x3:0x133 / me=umh / subme=10 / psy=1 / psy_rd=1.00:0.00 / mixed_ref=1 / me_range=24 / chroma_me=1 / trellis=2 / 8x8dct=1 / cqm=0 / deadzone=21,11 / fast_pskip=1 / chroma_qp_offset=-2 / threads=66 / lookahead_threads=3 / sliced_threads=0 / nr=0 / decimate=1 / interlaced=0 / bluray_compat=0 / constrained_intra=0 / bframes=8 / b_pyramid=2 / b_adapt=2 / b_bias=0 / direct=3 / weightb=1 / open_gop=0 / weightp=2 / keyint=250 / keyint_min=23 / scenecut=40 / intra_refresh=0 / rc_lookahead=60 / rc=2pass / mbtree=1 / bitrate=960 / ratetol=1.0 / qcomp=0.60 / qpmin=0 / qpmax=69 / qpstep=4 / cplxblur=20.0 / qblur=0.5 / ip_ratio=1.40 / aq=1:1.00
Language : German
Default : Yes
Forced : No

Audio
ID : 2
Format : AC-3
Format/Info : Audio Coding 3
Mode extension : CM (complete main)
Format settings, Endianness : Big
Codec ID : A_AC3
Duration : 1 h 30 min
Bit rate mode : Constant
Bit rate : 192 kb/s
Channel(s) : 2 channels
Channel positions : Front: L R
Sampling rate : 44.1 kHz
Frame rate : 28.711 FPS (1536 spf)
Bit depth : 16 bits
Compression mode : Lossy
Delay relative to video : 17 ms
Stream size : 124 MiB (17%)
Language : Russian
Default : Yes
Forced : No









МОИ РАЗДАЧИ НА ФЕНИКСе: ЗДЕСЬ




Это сообщение отредактировал SanSan48 - 27.12.2017 - 13:05


--------------------
"Спартак" - ЧЕМПИОН!!!

Скрыть подпись


Dims888
№2 Отправлено: 27.12.2017 - 12:57


любитель животных

Группа: Потребители
Регистрация: 8.04.2012
Сообщений: 271
Последний раз был:
вчера в 19:36




Спасибо за фильм.
Архивы РИПа в порядке.


Это сообщение отредактировал Dims888 - 27.12.2017 - 12:58
Top
Djangosokol
№3 Отправлено: 27.12.2017 - 13:12


Новичок

Группа: Активисты
Регистрация: 13.11.2009
Сообщений: 95
Последний раз был:
10.05.2018 - 08:37




Спасибо за мою звуковую дорожку к полной версии.Записывали с Ромой Кирилловым в Киеве на студии в Бортничах.
Делали для сайта "Вестернс.Ру" cowboy.gif Откуда её спер Тонг
Top
Djangosokol
№4 Отправлено: 27.12.2017 - 13:17


Новичок

Группа: Активисты
Регистрация: 13.11.2009
Сообщений: 95
Последний раз был:
10.05.2018 - 08:37




Тогда мы с Ромой озвучили три ДЕФОВСКИХ полных фильма snegurka.gif
Top
SanSan48
№5 Отправлено: 27.12.2017 - 13:23


"Спартак" - ЧЕМПИОН!!!

Группа: Пользователи
Регистрация: 28.12.2009
Сообщений: 1892
Обитает:
Последний раз был:
вчера в 21:32




Цитата
( Dims888 @ 27.12.2017 - 12:57)
Спасибо за фильм.
Архивы РИПа в порядке.

Dims888, Благодарю за информацию!


--------------------
"Спартак" - ЧЕМПИОН!!!

Скрыть подпись
Top
SanSan48
№6 Отправлено: 27.12.2017 - 13:28


"Спартак" - ЧЕМПИОН!!!

Группа: Пользователи
Регистрация: 28.12.2009
Сообщений: 1892
Обитает:
Последний раз был:
вчера в 21:32




Цитата
( Djangosokol @ 27.12.2017 - 13:12)
Спасибо за мою звуковую дорожку к полной версии.Записывали с Ромой Кирилловым в Киеве на студии в Бортничах.
Делали для сайта "Вестернс.Ру" cowboy.gif Откуда её спер Тонг

Djangosokol, Спасибо Вам большое за озвучку к полной версии фильма!

А что касается спёра - так это принятая и широко распространённая практика.
И главное, спасибо не говорят.


--------------------
"Спартак" - ЧЕМПИОН!!!

Скрыть подпись
Top
Djangosokol
№7 Отправлено: 27.12.2017 - 13:32


Новичок

Группа: Активисты
Регистрация: 13.11.2009
Сообщений: 95
Последний раз был:
10.05.2018 - 08:37




Я его попросил хотя бы написать-кто озвучивает!
Спасибо ему за это!
Top
Djangosokol
№8 Отправлено: 27.12.2017 - 13:37


Новичок

Группа: Активисты
Регистрация: 13.11.2009
Сообщений: 95
Последний раз был:
10.05.2018 - 08:37




Два других фильма были--" Союз племени ирокезов" и "Пой,ковбой,пой!"
Ирокезов особенно изуродовали в советском прокате.


Это сообщение отредактировал Djangosokol - 27.12.2017 - 13:37
Top
1 человек просматривает эту тему (1 гость)
« Предыдущая тема | Советский дубляж | Следующая тема »


 



[Script Execution time: 0,0569]   [23 queries used]   [GZIP enabled]