Заходят многие - остаются лучшие!
Здравствуйте Гость ( Вход | Регистрация ) Выслать повторно письмо для активации
Вход
Ваше имя Пароль Забыли пароль?
Запомнить Вас?
Войти скрытым?



 Правила раздела Новые сообщения раздела  


 

 Багдадский вор / The Thief of Bagdad (1940), Прекрасный, вечно нестареющий фильм-сказка в HD качестве
SanSan48
  №1 Отправлено: 20.12.2017 - 10:53


"Спартак" - ЧЕМПИОН!!!

Группа: Пользователи
Регистрация: 28.12.2009
Сообщений: 1949
Обитает:
Последний раз был:
cегодня в 10:45




Багдадский вор / The Thief of Bagdad (1940)



Предыдущие раздачи:
11.03.2013 (VHSrip) [советская прокатная копия с «вшитыми» субтитры]
27.02.2010 (DVDrip)
20.06.2008 (DVDrip)
24.01.2008 (DVDrip)
20.03.2007 (DVDrip)

Жанр: Фэнтези, приключения, сказка
Выпущено: Великобритания, Alexander Korda Films, London Film Productions
Год выпуска: 1940
Премьера (мир): 14 октября 1940 (США), 17 октября 1940 (США, Лос-Анджелес, Калифорния), 5 декабря 1940 (США, Нью-Йорк), 19 декабря 1940 (Великобритания, Лондон), 25 декабря 1940 (Великобритания), 25 декабря 1940 (США)
Премьера (СССР): 1 марта 1944 (СССР)
Сценаристы: Майлз Маллесон / Miles Malleson, Лайош Биро / Lajos Biró, Миклош Рожа / Miklós Rózsa
Операторы: Осмонд Боррэдэйл / Osmond Borradaile, Жорж Периналь / Georges Périnal
Композитор: Миклош Рожа / Miklós Rózsa
Художники: Винсент Корда / Vincent Korda, Джон Армстронг / John Armstrong, Оливер Мессель / Oliver Messel, Марсель Верте / Marcel Vertès
Монтажёр: Чарльз Крайтон / Charles Crichton

Режиссёр: Людвиг Бергер / Ludwig Berger, Майкл Пауэлл / Michael Powell, Тим Уилан / Tim Whelan

В ролях:
Сабу / Sabu ... Abu
Джун Дюпрез / June Duprez ... Princess
Джон Джастин / John Justin ... Ahmad
Конрад Фейдт / Conrad Veidt ... Jaffar
Рекс Ингрэм / Rex Ingram ... Djinn
Майлз Маллесон / Miles Malleson ... Sultan
Мортон Селтен / Morton Selten ... The Old King
Мэри Моррис / Mary Morris ... Halima / Six-Armed Lady
Брюс Уинстон / Bruce Winston ... The Merchant
Хэй Питри / Hay Petrie ... Astrologer
Аделаида Холл / Adelaide Hall ... Singer
Рой Эмертон / Roy Emerton ... Jailer
Аллан Джейес / Allan Jeayes ... The Story Teller
Фредерик Бёртуэлл / Frederick Burtwell ...
Джозеф Козир / Joseph Cozier ... Man Selling Fish

Описание: Описание: Злой визирь и колдун Джафар (Конрад Фейдт) надоумил молодого и красивого царя Ахмата (Джон Джастин) переодеться бедняком и пойти в народ, чтобы узнать, что о нем говорят люди. Во время отсутствия Ахмата, Джафар дает приказ его схватить, объявив сумасшедшим самозванцем, и казнить. Но в тюрьме царь встречается с багдадским вором Абу (Сабу), и вместе они бежат в Басру, где Ахмат влюбляется в принцессу (Джун Дюпрез), проникнув к ней во дворец. Они полюбили друг друга, но колдун Джафар наложил проклятье на царя, ослепив его, а вора превратил в собаку. Много интереснейших приключений пришлось пережить воришке Абу, Ахмату и принцессе, прежде чем милостивый аллах соединил их сердца и руки…

Дополнительная информация: Релиз:

Исходник найден в сети.

Автор рипа: pmv

Большое спасибо за:
- аудиодорожку с русской озвучкой с раздачи https:// 6801-6519
- синхронизацию русской дорожки - pmv

IMDb = 7,6/10 (9 912) - http://www.imdb.com/title/tt0033152/
Кинопоиск = 7.320 (900) - https://www.kinopoisk.ru/film/bagdadskiy-vor-1940-8273/

ВНИМАНИЕ!!! РИП ФОРМАТА mkv (кодек H.264) ВОСПРОИЗВОДИТСЯ НЕ НА ВСЕХ БЫТОВЫХ ВИДЕОПЛЕЕРАХ!!!

Параметры файла:
Название: The Thief of Bagdad (1940, rus_VO+eng+eng,fre,ita,spa_sub).mkv
Качество видео: HDrip-AVC
Формат видео: MKV
Размер: 1,47 ГБ (1 581 409 772 байт)
Продолжительность: 01:46:08
Перевод: Профессиональный (одноголосый закадровый)
Оригинальная аудиодорожка: английский
Субтитры: английские + французские + итальянские + испанские
Видео: AVC (H264), 880x648 (1.36:1), 24fps, 1600 kbps, 0.117 Bits/Pixel
Аудио #1: AC3, 48 KHz, stereo (2 ch), 192 kbps - русский
Аудио #2: AC3, 48 KHz, stereo (2 ch), 192 kbps - английский



General
Unique ID : 24736336284365322182693961660037855864 (0x129C0B8A2152FDE4F4AD4522EDA3FA78)
Complete name : D:\torrents\The Thief of Bagdad (1940, rus_VO+eng+eng,fre,ita,spa_sub).mkv
Format : Matroska
Format version : Version 4 / Version 2
File size : 1.47 GiB
Duration : 1 h 46 min
Overall bit rate : 1 987 kb/s
Encoded date : UTC 2017-12-19 02:18:21
Writing application : mkvmerge v19.0.0 ('Brave Captain') 64-bit
Writing library : libebml v1.3.5 + libmatroska v1.4.8

Video
ID : 1
Format : AVC
Format/Info : Advanced Video Codec
Format profile : High@L4.1
Format settings, CABAC : Yes
Format settings, ReFrames : 14 frames
Codec ID : V_MPEG4/ISO/AVC
Duration : 1 h 46 min
Bit rate : 1 600 kb/s
Width : 880 pixels
Height : 648 pixels
Display aspect ratio : 4:3
Frame rate mode : Constant
Frame rate : 24.000 FPS
Color space : YUV
Chroma subsampling : 4:2:0
Bit depth : 8 bits
Scan type : Progressive
Bits/(Pixel*Frame) : 0.117
Stream size : 1.19 GiB (81%)
Writing library : x264 core 146 r2538 121396c
Encoding settings : cabac=1 / ref=14 / deblock=1:0:0 / analyse=0x3:0x133 / me=umh / subme=10 / psy=1 / psy_rd=1.00:0.00 / mixed_ref=1 / me_range=24 / chroma_me=1 / trellis=2 / 8x8dct=1 / cqm=0 / deadzone=21,11 / fast_pskip=1 / chroma_qp_offset=-2 / threads=66 / lookahead_threads=5 / sliced_threads=0 / nr=0 / decimate=1 / interlaced=0 / bluray_compat=0 / constrained_intra=0 / bframes=8 / b_pyramid=2 / b_adapt=2 / b_bias=0 / direct=3 / weightb=1 / open_gop=0 / weightp=2 / keyint=250 / keyint_min=24 / scenecut=40 / intra_refresh=0 / rc_lookahead=60 / rc=2pass / mbtree=1 / bitrate=1600 / ratetol=1.0 / qcomp=0.60 / qpmin=0 / qpmax=69 / qpstep=4 / cplxblur=20.0 / qblur=0.5 / ip_ratio=1.40 / aq=1:1.00
Language : English
Default : Yes
Forced : No

Audio #1
ID : 2
Format : AC-3
Format/Info : Audio Coding 3
Mode extension : CM (complete main)
Format settings, Endianness : Big
Codec ID : A_AC3
Duration : 1 h 46 min
Bit rate mode : Constant
Bit rate : 192 kb/s
Channel(s) : 2 channels
Channel positions : Front: L R
Sampling rate : 48.0 kHz
Frame rate : 31.250 FPS (1536 spf)
Bit depth : 16 bits
Compression mode : Lossy
Stream size : 146 MiB (10%)
Language : Russian
Default : Yes
Forced : No

Audio #2
ID : 3
Format : AC-3
Format/Info : Audio Coding 3
Mode extension : CM (complete main)
Format settings, Endianness : Big
Codec ID : A_AC3
Duration : 1 h 46 min
Bit rate mode : Constant
Bit rate : 192 kb/s
Channel(s) : 2 channels
Channel positions : Front: L R
Sampling rate : 48.0 kHz
Frame rate : 31.250 FPS (1536 spf)
Bit depth : 16 bits
Compression mode : Lossy
Stream size : 146 MiB (10%)
Language : English
Default : No
Forced : No

Text #1
ID : 4
Format : UTF-8
Codec ID : S_TEXT/UTF8
Codec ID/Info : UTF-8 Plain Text
Duration : 1 h 43 min
Bit rate : 44 b/s
Count of elements : 949
Stream size : 33.6 KiB (0%)
Language : English
Default : No
Forced : No

Text #2
ID : 5
Format : UTF-8
Codec ID : S_TEXT/UTF8
Codec ID/Info : UTF-8 Plain Text
Duration : 1 h 45 min
Bit rate : 34 b/s
Count of elements : 1019
Stream size : 27.0 KiB (0%)
Language : French
Default : No
Forced : No

Text #3
ID : 6
Format : UTF-8
Codec ID : S_TEXT/UTF8
Codec ID/Info : UTF-8 Plain Text
Duration : 1 h 18 min
Bit rate : 46 b/s
Count of elements : 781
Stream size : 26.4 KiB (0%)
Language : Italian
Default : No
Forced : No

Text #4
ID : 7
Format : UTF-8
Codec ID : S_TEXT/UTF8
Codec ID/Info : UTF-8 Plain Text
Duration : 1 h 44 min
Bit rate : 35 b/s
Count of elements : 801
Stream size : 27.4 KiB (0%)
Language : Spanish
Default : No
Forced : No









МОИ РАЗДАЧИ НА ФЕНИКСе: ЗДЕСЬ




Это сообщение отредактировал SanSan48 - 20.12.2017 - 11:01


--------------------
"Спартак" - ЧЕМПИОН!!!

Скрыть подпись


kyo
№2 Отправлено: 20.12.2017 - 14:09


Живёт здесь

Группа: Потребители
Регистрация: 21.07.2007
Сообщений: 2016
Обитает:
Последний раз был:
cегодня в 11:05




Архивы в порядке, спасибо !
Top
vjub58
№3 Отправлено: 20.12.2017 - 14:10


Практикующий эсквайр

Группа: Аксакалы
Регистрация: 6.12.2005
Сообщений: 4834
Обитает:
Последний раз был:
cегодня в 00:09




Спасибо, все ОК. pozdrav_buket.gif
Top
SanSan48
№4 Отправлено: 20.12.2017 - 14:24


"Спартак" - ЧЕМПИОН!!!

Группа: Пользователи
Регистрация: 28.12.2009
Сообщений: 1949
Обитает:
Последний раз был:
cегодня в 10:45




Цитата
kyo @ 20.12.2017 - 14:09

Архивы в порядке, спасибо !


Цитата
vjub58 @ 20.12.2017 - 14:10

Спасибо, все ОК. pozdrav_buket.gif


kyo & vjub58
Благодарю за сообщение!


Это сообщение отредактировал SanSan48 - 20.12.2017 - 14:29


--------------------
"Спартак" - ЧЕМПИОН!!!

Скрыть подпись
Top
SanSan48
№5 Отправлено: 20.12.2017 - 14:25


"Спартак" - ЧЕМПИОН!!!

Группа: Пользователи
Регистрация: 28.12.2009
Сообщений: 1949
Обитает:
Последний раз был:
cегодня в 10:45




Всем приятного просмотра этого замечательного фильма!


Это сообщение отредактировал SanSan48 - 20.12.2017 - 14:29


--------------------
"Спартак" - ЧЕМПИОН!!!

Скрыть подпись
Top
1 человек просматривает эту тему (1 гость)
« Предыдущая тема | Зарубежные фильмы | Следующая тема »


 



[Script Execution time: 0,0284]   [23 queries used]   [GZIP enabled]