Заходят многие - остаются лучшие!
Здравствуйте Гость ( Вход | Регистрация ) Выслать повторно письмо для активации
Вход
Ваше имя Пароль Забыли пароль?
Запомнить Вас?
Войти скрытым?



Новые сообщения раздела  

 

 Храмы воинской славы в Санкт-Петербурге (2013), RTG Production Studios
bornik
  №1 Отправлено: 7.05.2018 - 16:25


Воспоминания - это богатства старости.

Группа: Модераторы
Регистрация: 18.08.2008
Сообщений: 1036
Обитает:
Последний раз был:
cегодня в 04:50




Храмы воинской славы в Санкт-Петербурге (2013)



«Храмы воинской славы в Санкт-Петербурге» - Россия – великая страна! Нет на свете страны с более миролюбивым народом, нежели Россия. И как не повезло России с её соседями, которые с момента образования Руси стремятся захватить её богатства и поработить или уничтожить её гордый, честный народ. Парадокс истории – самый миролюбивый народ на планете Земля вынужден всю свою историю воевать за право жить мирно. На Руси всегда чествовали своих защитников, и всегда свято чтили память погибших на поле брани своих воинов.
Русская традиция чествования воинских побед менялась с течением времени. В древности победы отмечались церковными торжествами, при Петре I появились государственные триумфы с парадом войск, строительством триумфальных арок и фейерверками, позднее стали ставить гражданские памятники и воинские мемориалы. Но на протяжении веков сохранялся один символ – благодарственные храмы воинской славы в честь великих побед и вечное поминовение погибших.
Санкт-Петербург – город, который был основан Петром Великим во время войны и благодаря войне, город, строительство которого велось на территории только что освобожденной от почти вековой оккупации Швецией, этот город обязан был себя защищать.
Санкт-Петербург – самая необычная столица мира, потому, что обычно столица находится в центре страны, а наш город строился на самой границе с агрессивным северным соседом. Поэтому в городе должна была быть сильная армия, которая смогла бы защитить столицу своей Родины. Поэтому Санкт-Петербург был городом военных. Мужественные гренадёры и блестящие морские офицеры, бравые кавалергарды и отважные гусары составляли значительную часть населения Северной Столицы.
Но и заслуги воинов – защитников отечества высоко ценились, и память о героизме и мужестве русских воинов свято хранились в Санкт-Петербурге. И православные храмы играли огромную роль в сохранении этой памяти о героических сражениях и памяти погибших на полях сражений российских воинах.
В Санкт-Петербурге строились церкви в честь воинских побед, кроме того строились полковые храмы для солдат и офицеров расквартированных в городе воинских частей.
Сегодня мы вспомним некоторые из этих храмов. И вспомним героев – русских солдат и офицеров, сражавшихся за свободу нашей земли. И поклонимся тем, кто погиб за то, чтобы мы могли жить в нашей стране – России, тем, кто погиб на полях сражений «ЗА ОТЕЧЕСТВО И ВЕРУ»!

Оригинальное название: Храмы воинской славы в Санкт-Петербурге
Год выпуска: 2013
Жанр: Документальный, познавательный
Выпущено: Россия, , RTG Production Studios
Продолжительность: 00:40:17
Субтитры: Русские (мои)

Режиссёр: Мария Смелкова / Maria Smelkova
Сценарист: Андрей Зарва / Andrei Zarva

Ведущий: Владимир Колганов / Vladimir Kolganov

Описание: Санкт-Петербург, как столица Российской империи, несколько веков был в центре выдающихся событий и военных побед. Здесь размещались полки императорской гвардии, отсюда берёт начало военно-морской флот. Воинские победы в старину сопровождались не только устройством парадов, фейерверков, шумных празднеств, но и возведением в городе величественных триумфальных арок, памятников, обелисков, а также — храмов. Соборы, церкви и часовни во славу сухопутных и морских побед строились в честь тех святых, в день памяти которых эти победы были одержаны. Не все храмы воинской славы сохранились до наших дней, но те, которые сегодня можно увидеть на площадях и улицах города поражают своим величием и строгой красотой. Ведущий RTG TV Владимир Колганов не только познакомился с военной историей бывшего императорского Санкт-Петербурга, но и открыл много нового, подробно изучив архитектурное убранство трех старейших храмов воинской славы Санкт-Петербурга — Николо-Богоявленского, Спасо-Преображенского и Святой-Живоначальной Троицы соборов. Зрителям предлагается совершить небольшую видеоэкскурсию и узнать для себя немало нового и интересного!









General
Complete name : C:\DVD documental fimls\RTG\Храмы воинской славы в Санкт-Петербурге\Храмы воинской славы в Санкт-Петербурге (2013).avi
Format : AVI
Format/Info : Audio Video Interleave
File size : 635 MiB
Duration : 40mn 17s
Overall bit rate : 2 205 Kbps
Writing application : VirtualDubMod 1.5.10.2 (build 2540/release)
Writing library : VirtualDubMod build 2540/release

Video
ID : 0
Format : MPEG-4 Visual
Format profile : Advanced Simple@L5
Format settings, BVOP : 2
Format settings, QPel : No
Format settings, GMC : No warppoints
Format settings, Matrix : Default (H.263)
Muxing mode : Packed bitstream
Codec ID : XVID
Codec ID/Hint : XviD
Duration : 40mn 17s
Bit rate : 2 003 Kbps
Width : 720 pixels
Height : 400 pixels
Display aspect ratio : 16:9
Frame rate : 25.000 fps
Color space : YUV
Chroma subsampling : 4:2:0
Bit depth : 8 bits
Scan type : Progressive
Compression mode : Lossy
Bits/(Pixel*Frame) : 0.278
Stream size : 577 MiB (91%)
Writing library : XviD 65

Audio
ID : 1
Format : MPEG Audio
Format version : Version 1
Format profile : Layer 3
Mode : Joint stereo
Codec ID : 55
Codec ID/Hint : MP3
Duration : 40mn 17s
Bit rate mode : Constant
Bit rate : 192 Kbps
Channel(s) : 2 channels
Sampling rate : 48.0 KHz
Compression mode : Lossy
Delay relative to video : 16ms
Stream size : 55.3 MiB (9%)
Alignment : Split accross interleaves
Interleave, duration : 40 ms (1.00 video frame)
Interleave, preload duration : 500 ms
Writing library : LAME3.98.2


=================================

Исходником послужил релиз HDTV, найденный на просторах инета!

Архивы созданы RAR-архиватором с добавлением 3% на восстановление и снабжены sfv-проверочником.
Просьба к первому скачавшему отписаться о сохранности архивов на источнике раздачи.


ПРИЯТНОГО ВСЕМ ПРОСМОТРА !!!




--------------------
Безоблачная старость – это миф,
Поскольку наша память – ширь морская,
И к ночи начинается прилив,
Со дна обломки прошлого таская.
Игорь Губерман

Скрыть подпись


oster47
№2 Отправлено: 7.05.2018 - 16:53


Посетитель

Группа: Потребители
Регистрация: 25.05.2010
Сообщений: 298
Обитает:
Последний раз был:
cегодня в 05:16




скачалось, собралось, спасибо....
Top
bornik
№3 Отправлено: 7.05.2018 - 16:58


Воспоминания - это богатства старости.

Группа: Модераторы
Регистрация: 18.08.2008
Сообщений: 1036
Обитает:
Последний раз был:
cегодня в 04:50




Цитата
( oster47 @ 7.05.2018 - 16:53)
скачалось, собралось, спасибо....

И Вам, oster47, спасибо за добрую весть. happy_fly.gif


--------------------
Безоблачная старость – это миф,
Поскольку наша память – ширь морская,
И к ночи начинается прилив,
Со дна обломки прошлого таская.
Игорь Губерман

Скрыть подпись
Top
1 человек просматривает эту тему (1 гость)
« Предыдущая тема | Мир вокруг нас | Следующая тема »


 



[Script Execution time: 0,0365]   [23 queries used]   [GZIP enabled]