Заходят многие - остаются лучшие!
Здравствуйте Гость ( Вход | Регистрация ) Выслать повторно письмо для активации
Вход
Ваше имя Пароль Забыли пароль?
Запомнить Вас?
Войти скрытым?



Новые сообщения раздела  

 

 BBC: Мир природы. Королева снежных обезьян / BBC: Natural World: Snow Monkeys (2009), BBC
bornik
  №1 Отправлено: 30.08.2017 - 16:58


Воспоминания - это богатства старости.

Группа: Модераторы
Регистрация: 18.08.2008
Сообщений: 968
Обитает:
Последний раз был:
cегодня в 02:45




BBC: "Мир природы". Королева снежных обезьян / BBC: Natural World: Snow Monkeys (2009)



«Королева снежных обезьян» - открытый в 1964 году парк Jigokudani Yaen-koen считается крупнейшей в мире резервацией снежных обезьян. В заповеднике, расположенном в горах острова Хонсю, обитает 160 японских макак (Macaca fuscata). В суровых климатических условиях, где снег лежит до четырех месяцев в году, обезьяны купаются в термальных источниках Дзигокуя-Онсен, принимая горячие ванны.
Поднимающийся от воды пар согревает животных, которые проводят в природных бассейнах большую часть дня. Макаки плещутся в воде всей семьей, закрывая глаза от удовольствия, а на берегу перебирают и очищают шерсть друг другу. Наблюдать за обезьянами можно на расстоянии вытянутой руки: источники не огорожены, а приматы настолько привыкли к людям, что не боятся подойти к посетителям поближе. Уникальность места - в возможности увидеть японских макак в естественной среде обитания, среди отвесных скал и неприступных лесов.

Название: BBC: "Мир природы". Королева снежных обезьян
Оригинальное название: BBC: Natural World: Snow Monkeys
Год выпуска: 2009
Жанр: Документальный, природа, фауна, флора
Выпущено: Великобритания, BBC
Продолжительность: 00:48:47
Субтитры: Русские (мои)

Режиссёр: Джон Браун / John Brown

Фильм озвучен студией "Кипарис" по заказу Союз-Видео.

Описание: Перед Вами удивительная и захватывающая история о жизни и смерти, повествующая об очень разной судьбе трех групп обезьян. Первые живут в достатке и гармонии друг с другом. Вторые вынуждены ежедневно бороться за выживание в горах. А третьи совершают набеги на поселения людей в поисках пищи. Среда обитания японских макак, или как их ещё называют снежных обезьян, весьма необычна. С одной стороны - это лежащий до 4 месяцев в году снег на севере Японии, с другой - расположенные поблизости горячие источники. Такие условия требуют большой изобретательности для местных обитателей.








General
Complete name : C:\DVD documental fimls\Королева снежных обезьян\Королева снежных обезьян (2009).avi
Format : AVI
Format/Info : Audio Video Interleave
File size : 769 MiB
Duration : 48mn 47s
Overall bit rate : 2 205 Kbps
Writing application : VirtualDubMod 1.5.10.2 (build 2540/release)
Writing library : VirtualDubMod build 2540/release

Video
ID : 0
Format : MPEG-4 Visual
Format profile : Advanced Simple@L5
Format settings, BVOP : 2
Format settings, QPel : No
Format settings, GMC : No warppoints
Format settings, Matrix : Default (H.263)
Muxing mode : Packed bitstream
Codec ID : XVID
Codec ID/Hint : XviD
Duration : 48mn 47s
Bit rate : 2 003 Kbps
Width : 720 pixels
Height : 400 pixels
Display aspect ratio : 16:9
Frame rate : 25.000 fps
Color space : YUV
Chroma subsampling : 4:2:0
Bit depth : 8 bits
Scan type : Progressive
Compression mode : Lossy
Bits/(Pixel*Frame) : 0.278
Stream size : 699 MiB (91%)
Writing library : XviD 65

Audio
ID : 1
Format : MPEG Audio
Format version : Version 1
Format profile : Layer 3
Mode : Joint stereo
Mode extension : MS Stereo
Codec ID : 55
Codec ID/Hint : MP3
Duration : 48mn 47s
Bit rate mode : Constant
Bit rate : 192 Kbps
Channel(s) : 2 channels
Sampling rate : 48.0 KHz
Compression mode : Lossy
Stream size : 67.0 MiB (9%)
Alignment : Aligned on interleaves
Interleave, duration : 40 ms (1.00 video frame)
Interleave, preload duration : 504 ms
Writing library : LAME3.98r
Encoding settings : -m j -V 4 -q 3 -lowpass 18.6 -b 192


Записались на автоматическое включение в очередь: Alevtina, Nadejdaenergia, baziss, grival406

Если вы хотите, чтобы вас автоматически ставили в очередь на следующие фильмы о природе,
- сообщите об этом в теме последней раздачи.


=================================

Исходником послужил релиз BLU-RAY, найденный на просторах инета!

Архивы созданы RAR-архиватором с добавлением 3% на восстановление и снабжены sfv-проверочником.
Просьба к первому скачавшему отписаться о сохранности архивов на источнике раздачи.

Раздача рассчитана на месяц.

ПРИЯТНОГО ВСЕМ ПРОСМОТРА !!!




--------------------
Безоблачная старость – это миф,
Поскольку наша память – ширь морская,
И к ночи начинается прилив,
Со дна обломки прошлого таская.
Игорь Губерман

Скрыть подпись


Alevtina
№2 Отправлено: 30.08.2017 - 18:32


Время камни собирать...

Группа: Аксакалы
Регистрация: 12.02.2009
Сообщений: 5577
Обитает:
Последний раз был:
вчера в 20:37




bornik, все хорошо! Скачалось, распаковалось и все отлично смотрится!!!Спасибо за фильм! zdarov1.gif


--------------------

Прохожие, купите Доброту!
Лишь за улыбку! Разве ж это много!
Исполните заветную мечту…
И хоть одну из Заповедей Бога!
Снимите маски «гордых» и «крутых»
Купите, хоть немножечко, Терпенья.
И ощутите сердцем, хоть на миг,
Всю прелесть и восторг благодаренья!
Сегодня, АКЦИЯ на Совесть и Любовь!
Притормозите «хаммер» свой, иль «буммер»!
Купите! И волнуйте свою кровь!
От этого ещё никто не умер!


Скрыть подпись
Top
bornik
№3 Отправлено: 30.08.2017 - 18:51


Воспоминания - это богатства старости.

Группа: Модераторы
Регистрация: 18.08.2008
Сообщений: 968
Обитает:
Последний раз был:
cегодня в 02:45




Цитата
( Alevtina @ 30.08.2017 - 18:32)
bornik, все хорошо! Скачалось, распаковалось и все отлично смотрится!!!Спасибо за фильм! zdarov1.gif

И Вам, Alevtina, спасибо за добрую вестью happy_fly.gif


--------------------
Безоблачная старость – это миф,
Поскольку наша память – ширь морская,
И к ночи начинается прилив,
Со дна обломки прошлого таская.
Игорь Губерман

Скрыть подпись
Top
1 человек просматривает эту тему (1 гость)
« Предыдущая тема | Мир вокруг нас | Следующая тема »


 



[Script Execution time: 0,0353]   [23 queries used]   [GZIP enabled]