Заходят многие - остаются лучшие!
Здравствуйте Гость ( Вход | Регистрация ) Выслать повторно письмо для активации
Вход
Ваше имя Пароль Забыли пароль?
Запомнить Вас?
Войти скрытым?



Новые сообщения раздела  

 

 Валерий Харламов. Поколение победителей (2004г.), документальный, спорт
Nadejdaenergia
  №1 Отправлено: 3.03.2018 - 08:41


Когда всё плохое уходит, остаётся только хорошее.

Группа: Модераторы
Регистрация: 21.03.2012
Сообщений: 6308
Обитает:
Последний раз был:
13.12.2018 - 18:28




Валерий Харламов. Поколение победителей.



Оригинальное название: Валерий Харламов. Поколение победителей
Год выпуска: 2004
Жанр: Документальный
Выпущено: Первый канал и Клуб «Звёзды хоккея»
Режиссер: Юрий Занин

О фильме: Весной 1969 года, на Чемпионат мира в Стокгольм впервые приехали советские хоккеисты: Владимир Петров, Борис Михайлов и Валерий Харламов. Они сразу стали лучшими. Харламов сыскал любовь не только поклонников хоккея. Знаменитый тренер Анатолий Тарасов вместе с доктором Олегом Белаковским называли Валерия Харламова не иначе как "наш хоккейный Пушкин"… 27 августа 1981 года на 73 км Ленинградского шоссе произошла автомобильная катастрофа. Жизнь знаменитого хоккеиста Валерия Харламова трагически оборвалась.
Этот фильм - история жизни и смерти легендарного хоккеиста, рассказанная его близкими, коллегами, поклонниками.

В фильме приняли участие: Бегонита Харламова (дочь), Виктор Тихонов, Иосиф Кобзон, Борис Сергеевич Харламов (отец), Валерий Васильев, Татьяна Харламова (сестра), Павел Буре, Александр Мальцев, Владимир Винокур, Галина Адамович (соседка, юношеская любовь Валерия Харламова), Владислав Третьяк, Владимир Петров, Вячеслав Фетисов, Борис Михайлов, Евгений Мишаков, Александр Рагулин, Олег Белаковский, Леонид Трахтернберг.

Исходный материал найден в сети, обрезаны чёрные полосы.



MediaInfoLib - v0.7.70

General
Complete name : Valerij.Kharlamov.Pokolenie.pobeditelej.2004.fenixclub.com.avi
Format : AVI
Format/Info : Audio Video Interleave
File size : 771 MiB
Duration : 52mn 52s
Overall bit rate : 2 039 Kbps
Writing application : VirtualDubMod 1.5.10.3 | www.virtualdub-fr.org || (build 2550/release)
Writing library : VirtualDubMod build 2550/release

Video
ID : 0
Format : MPEG-4 Visual
Format profile : Advanced Simple@L5
Format settings, BVOP : 1
Format settings, QPel : No
Format settings, GMC : No warppoints
Format settings, Matrix : Default (MPEG)
Codec ID : DX50
Codec ID/Hint : DivX 5
Duration : 52mn 52s
Bit rate : 1 902 Kbps
Width : 640 pixels
Height : 512 pixels
Display aspect ratio : 5:4
Frame rate : 25.000 fps
Color space : YUV
Chroma subsampling : 4:2:0
Bit depth : 8 bits
Scan type : Progressive
Compression mode : Lossy
Bits/(Pixel*Frame) : 0.232
Stream size : 719 MiB (93%)
Writing library : XviD 1.2.1 (UTC 2008-12-04)

Audio
ID : 1
Format : MPEG Audio
Format version : Version 1
Format profile : Layer 3
Codec ID : 55
Codec ID/Hint : MP3
Duration : 52mn 52s
Bit rate mode : Constant
Bit rate : 128 Kbps
Channel(s) : 2 channels
Sampling rate : 44.1 KHz
Compression mode : Lossy
Stream size : 48.4 MiB (6%)
Alignment : Split accross interleaves
Interleave, duration : 40 ms (1.00 video frame)
Interleave, preload duration : 500 ms
Writing library : LAME3.99r
Encoding settings : -m s -V 4 -q 2 -lowpass 17 -b 128






В качестве БОНУСА к фильму добавлены книги Харламова и о Харламове в ФОРМАТЕ FB2:

- Дворцов В., Юрьев З. Форвард №17 (Повесть о Валерии Харламове). 1984. Советская Россия
- Макарычев Максим. ЖЗЛ. Валерий Харламов. 2015. Молодая гвардия
- Раззаков Ф. Валерий Харламов. Легенда №17. 2013. Алгоритм
- Рейзер Леонид. Неизвестный Харламов. 2014. Центрполиграф
- Харламов Валерий. Три начала. 1979
- Харламов Валерий. Хоккей - моя стихия. 1977. Правда, Библиотека Огонёк

Общий размер папки с электронными книгами - 44,8Мб.

Основной архив и бонус находятся по единому линку. Архивы созданы архиватором RAR и снабжены sfv-проверочниками. Пароль - общий. Раздача рассчитана на месяц.

Просьба первым скачавшим сообщить о состоянии архива.




--------------------


1. Только надеяться - мало толка.
И все-таки, разумеется,
надо надеяться, но только
НЕ ТОЛЬКО надеяться.

2. Мудрость простейших истин признав,
Повесь на стену себе
Знак сокровенный, таинственный Знак
ВТВ.
И если к вершине долгий путь
Стал непосильным бременем –
Вспомни, прежде чем повернуть:
Всё Требует Времени…


Piet Hein Jr.

Скрыть подпись


kyo
№2 Отправлено: 3.03.2018 - 10:43


Живёт здесь

Группа: Потребители
Регистрация: 21.07.2007
Сообщений: 2079
Обитает:
Последний раз был:
cегодня в 20:04




Архивы в порядке, спасибо !
Top
Nadejdaenergia
№3 Отправлено: 3.03.2018 - 16:38


Когда всё плохое уходит, остаётся только хорошее.

Группа: Модераторы
Регистрация: 21.03.2012
Сообщений: 6308
Обитает:
Последний раз был:
13.12.2018 - 18:28




kyo, благодарю!


--------------------


1. Только надеяться - мало толка.
И все-таки, разумеется,
надо надеяться, но только
НЕ ТОЛЬКО надеяться.

2. Мудрость простейших истин признав,
Повесь на стену себе
Знак сокровенный, таинственный Знак
ВТВ.
И если к вершине долгий путь
Стал непосильным бременем –
Вспомни, прежде чем повернуть:
Всё Требует Времени…


Piet Hein Jr.

Скрыть подпись
Top
aleks19
№4 Отправлено: 8.03.2018 - 09:02


Прохожий

Группа: Потребители
Регистрация: 14.10.2015
Сообщений: 24
Обитает:
Последний раз был:
cегодня в 04:03




спасибо и с Праздником!
Top
Nadejdaenergia
№5 Отправлено: 25.04.2018 - 16:14


Когда всё плохое уходит, остаётся только хорошее.

Группа: Модераторы
Регистрация: 21.03.2012
Сообщений: 6308
Обитает:
Последний раз был:
13.12.2018 - 18:28




Все заливы на Облако сохраняются. При желании скачать пишите в ПМ.


--------------------


1. Только надеяться - мало толка.
И все-таки, разумеется,
надо надеяться, но только
НЕ ТОЛЬКО надеяться.

2. Мудрость простейших истин признав,
Повесь на стену себе
Знак сокровенный, таинственный Знак
ВТВ.
И если к вершине долгий путь
Стал непосильным бременем –
Вспомни, прежде чем повернуть:
Всё Требует Времени…


Piet Hein Jr.

Скрыть подпись
Top
1 человек просматривает эту тему (1 гость)
« Предыдущая тема | О спорт, ты - мир! | Следующая тема »


 



[Script Execution time: 0,0663]   [23 queries used]   [GZIP enabled]