Заходят многие - остаются лучшие!
Здравствуйте Гость ( Вход | Регистрация ) Выслать повторно письмо для активации
Вход
Ваше имя Пароль Забыли пароль?
Запомнить Вас?
Войти скрытым?



 Правила раздела Новые сообщения раздела  


 

 Оковы / Catene / Chains (1949), драма, криминал / Италия
surzhoks
  №1 Отправлено: 3.03.2018 - 19:02


Живёт здесь

Группа: Аксакалы
Регистрация: 17.03.2008
Сообщений: 1100
Обитает:
Последний раз был:
13.12.2018 - 17:49




Оковы / Catene / Chains


Страна: Италия
Студия: Labor Film, Titanus
Жанр: 01:34:37
Год выпуска: 1949
Продолжительность: 01:34:37
Режиссер: Раффаэлло Матараццо / Raffaello Matarazzo

В ролях:
Амедео Наццари / Amedeo Nazzari ... Guglielmo Aniello
Ивонн Сансон / Yvonne Sanson ... Rosa Carrisi
Альдо Никодеми / Aldo Nicodemi ... Emilio
Роберто Муроло / Roberto Murolo ... Il cantante
Альдо Сильвани / Aldo Silvani ... L'avvocato dell'accusa
Тереза Франкини / Teresa Franchini ... Anna Aniello, madre di Guglielmo
Джанфранко Магалотти / Gianfranco Magalotti ... Tonino Aniello
Розалия Рандаццо / Rosalia Randazzo ... Angela Aniello

Описание: Роза счастливо живет в Неаполе с мужем-автомехаником Гульельмо, маленьким сыном и дочерью. Однажды некий клиент, член банды угонщиков автомобилей, оставляет в их гараже автомобиль для починки. Его сообщник Эмилио узнает в Розе женщину, которую некогда любил и на которой хотел жениться. Он начинает повсюду ее преследовать и втирается в доверие к ее мужу, предлагая ему деловое партнерство и расширение мастерской. Роза никогда не говорила мужу Гульельмо о своем бывшем женихе. Эмилио шантажирует ее, грозя сказать мужу, что они были любовниками, хотя это неправда...

Доп. информация:
Огромное спасибо всем причастным к релизу:
рип - Магда,
перевод фильма - jojag,
редакция перевода - Miss Morti,
озвучивание фильма (по русским субтитрам)- Виктор Рутилов (fiendover),
работа со звуком и реавторинг DVD- AlekceyR76,
финансовая поддержка перевода и озвучивания фильма:
Магда, Lafajet, jasenka, yanaelisa, STICK24, елена 22, voostorg, sindzi, exact, Ugo927, Patsy+, spartakeynoir, Simpun, GalaUkr

Архивы созданы RAR-архиватором с добавлением 3% на восстановление и снабжены sfv-проверочником.
Просьба к первому скачавшему отписаться о сохранности архивов на источнике раздачи.

Раздача рассчитана на 2 месяца. На просмотр линка и скачивание 5 дней!
В случае если вы встали в очередь, а затем отказываетесь от скачивания без объяснения причин, возможен отказ в последующих моих раздачах.



Полное имя :Catene.avi
Формат : AVI
Формат/Информация : Audio Video Interleave
Размер файла : 1,46 Гбайт
Продолжительность : 1 ч. 34 м.
Общий поток : 2206 Кбит/сек
Программа кодирования : VirtualDubMod 1.5.10.3 | www.virtualdub-fr.org || (build 2550/release)
Библиотека кодирования : VirtualDubMod build 2550/release

Видео
Идентификатор : 0
Формат : MPEG-4 Visual
Профиль формата : Advanced Simple@L5
Параметр BVOP формата : 2
Параметр QPel формата : Нет
Параметр GMC формата : Без точки перехода
Параметр матрицы формата : Default (H.263)
Идентификатор кодека : DX50
Идентификатор кодека/Подсказка : DivX 5
Продолжительность : 1 ч. 34 м.
Битрейт : 1808 Кбит/сек
Ширина : 640 пикселей
Высота : 480 пикселей
Соотношение сторон : 4:3
Частота кадров : 23,976 кадра/сек
Цветовое пространство : YUV
Субдискретизация насыщенности : 4:2:0
Битовая глубина : 8 бит
Тип развёртки : Прогрессивная
Метод сжатия : С потерями
Бит/(Пиксели*Кадры) : 0.245
Размер потока : 1,19 Гбайт (82%)
Библиотека кодирования : XviD 73

Аудио #1
Идентификатор : 1
Формат : AC-3
Формат/Информация : Audio Coding 3
Расширение режима : CM (complete main)
Параметр Endianness формата : Big
Идентификатор кодека : 2000
Продолжительность : 1 ч. 34 м.
Вид битрейта : Постоянный
Битрейт : 192 Кбит/сек
Каналы : 1 канал
Расположение каналов : Front: C
Частота : 48,0 КГц
Битовая глубина : 16 бит
Метод сжатия : С потерями
Размер потока : 130 Мбайт (9%)
Выравнивание : Разделение по промежуткам
Продолжительность промежутка : 42 мс. (1,00 видеокадр)
Время предзагрузки промежутка : 500 мс.

Аудио #2
Идентификатор : 2
Формат : AC-3
Формат/Информация : Audio Coding 3
Расширение режима : CM (complete main)
Параметр Endianness формата : Big
Идентификатор кодека : 2000
Продолжительность : 1 ч. 34 м.
Вид битрейта : Постоянный
Битрейт : 192 Кбит/сек
Каналы : 1 канал
Расположение каналов : Front: C
Частота : 48,0 КГц
Битовая глубина : 16 бит
Метод сжатия : С потерями
Размер потока : 130 Мбайт (9%)
Выравнивание : Разделение по промежуткам
Продолжительность промежутка : 42 мс. (1,00 видеокадр)
Время предзагрузки промежутка : 500 мс.




kyo
№2 Отправлено: 3.03.2018 - 20:28


Живёт здесь

Группа: Потребители
Регистрация: 21.07.2007
Сообщений: 2079
Обитает:
Последний раз был:
cегодня в 20:04




Архивы в порядке, спасибо !
Top
valbar
№3 Отправлено: 3.03.2018 - 20:28


Живёт здесь

Группа: Потребители
Регистрация: 13.01.2010
Сообщений: 1168
Обитает:
Последний раз был:
вчера в 15:43





Архивы в порядке. Большое спасибо!
Top
1 человек просматривает эту тему (1 гость)
« Предыдущая тема | Зарубежные фильмы | Следующая тема »


 



[Script Execution time: 0,0382]   [23 queries used]   [GZIP enabled]