Заходят многие - остаются лучшие!
Здравствуйте Гость ( Вход | Регистрация ) Выслать повторно письмо для активации
Вход
Ваше имя Пароль Забыли пароль?
Запомнить Вас?
Войти скрытым?



Новые сообщения раздела  

 

 Шимпанзе / DisneyNature: Chimpanzee (2012), DisneyNature
bornik
  №1 Отправлено: 11.09.2017 - 02:40


Воспоминания - это богатства старости.

Группа: Модераторы
Регистрация: 18.08.2008
Сообщений: 966
Обитает:
Последний раз был:
cегодня в 19:45




Шимпанзе / DisneyNature: Chimpanzee (2012)




«Шимпанзе» - это удивительная история личных побед и семейных отношений позволят вам с близкого расстояния наблюдать за перемещениями этих шимпанзе по огромному лесу, пережить многие драматические события их жизни. Эти отважные и обаятельные приматы обязательно покорят ваши сердца.

Название: Шимпанзе
Оригинальное название: Chimpanzee
Год выпуска: 2012
Жанр: Документальный, природа, фауна, флора
Выпущено: США, , Танзания, , Great Ape Productions, DisneyNature
Продолжительность: 01:18:15
Субтитры: Русские (мои)

Режиссёр: Аластер Фовергилл / Alastair Fothergill, Марк Линфилд / Mark Linfield

Музыка: Николас Хупер / Nicholas Hooper

Программа озвучена студией "Омикрон"

Описание: Документальный фильм о молодом шимпанзе по имени Оскар от студии Disney Nature, автора многочисленных фильмов о живой природе. Мы встречаем Оскара, восхитительного молодого шимпанзе в труднопроходимом тропическом лесу, где его стая занимает территорию, богатую разнообразным пропитанием. Его мать Иша погибает в схватке с конкурирующей стаей шимпанзе, и он безуспешно пытается найти себе другую мать, которая заботилась бы о нем. И в один прекрасный день его принимает вожак стаи...
Несмотря на сложный рельеф местности высококачественная съемка сделана с достаточно близкого расстояния, что позволяет подробно и в деталях рассмотреть это захватывающее приключение молодого шимпанзе.


• По решению американского прокатчика Disney Nature двадцать центов с каждого проданного на первой неделе проката билета пошли научному институту Джейн Гудолл на проводимую им программу «Увидеть шимпанзе, спасти шимпанзе». Эта программа помогает охранять шимпанзе и их среду обитания, а также ведёт образовательную и разъяснительную работу среди местного населения. После успешного старта документальной ленты акция была продлена и на вторую неделю проката.
• На съёмки фильма в национальном парке Тай ушло более четырёх лет. Этот национальный парк расположен на западе Республики Кот-д`Ивуар и внесён в список всемирного наследия ЮНЕСКО.
• Премьерный показ фильма состоялся в крупном парке развлечений Walt Disney World, который расположен неподалёку от города Орландо, штат Флорида. На него были специально приглашены режиссёры Аластер Фовергилл и Марк Линфилд, а также занимающаяся в Африке более 45 лет исследованием и охраной шимпанзе приматолог Джейн Гудолл.









General
Complete name : C:\DVD documental fimls\Шимпанзе\Шимпанзе (2012).avi
Format : AVI
Format/Info : Audio Video Interleave
File size : 1.20 GiB
Duration : 1h 18mn
Overall bit rate : 2 191 Kbps
Writing application : VirtualDubMod 1.5.10.2 (build 2540/release)
Writing library : VirtualDubMod build 2540/release

Video
ID : 0
Format : MPEG-4 Visual
Format profile : Advanced Simple@L5
Format settings, BVOP : 2
Format settings, QPel : No
Format settings, GMC : No warppoints
Format settings, Matrix : Default (H.263)
Muxing mode : Packed bitstream
Codec ID : XVID
Codec ID/Hint : XviD
Duration : 1h 18mn
Bit rate : 1 990 Kbps
Width : 720 pixels
Height : 400 pixels
Display aspect ratio : 16:9
Frame rate : 23.976 (24000/1001) fps
Color space : YUV
Chroma subsampling : 4:2:0
Bit depth : 8 bits
Scan type : Progressive
Compression mode : Lossy
Bits/(Pixel*Frame) : 0.288
Stream size : 1.09 GiB (91%)
Writing library : XviD 65

Audio
ID : 1
Format : MPEG Audio
Format version : Version 1
Format profile : Layer 3
Mode : Joint stereo
Mode extension : MS Stereo
Codec ID : 55
Codec ID/Hint : MP3
Duration : 1h 18mn
Bit rate mode : Constant
Bit rate : 192 Kbps
Channel(s) : 2 channels
Sampling rate : 48.0 KHz
Compression mode : Lossy
Stream size : 107 MiB (9%)
Alignment : Aligned on interleaves
Interleave, duration : 42 ms (1.00 video frame)
Interleave, preload duration : 504 ms
Writing library : LAME3.98r
Encoding settings : -m j -V 4 -q 3 -lowpass 18.6 -b 192


Записались на автоматическое включение в очередь: Alevtina, Nadejdaenergia, baziss, grival406, медикус

Если вы хотите, чтобы вас автоматически ставили в очередь на следующие фильмы о природе,
- сообщите об этом в теме последней раздачи.


=================================

Исходником послужил релиз Blu-ray, найденный на просторах инета!

Архивы созданы RAR-архиватором с добавлением 3% на восстановление и снабжены sfv-проверочником.
Просьба к первому скачавшему отписаться о сохранности архивов на источнике раздачи.

Раздача рассчитана на месяц.

ПРИЯТНОГО ВСЕМ ПРОСМОТРА !!!




--------------------
Безоблачная старость – это миф,
Поскольку наша память – ширь морская,
И к ночи начинается прилив,
Со дна обломки прошлого таская.
Игорь Губерман

Скрыть подпись


Polin
№2 Отправлено: 11.09.2017 - 11:30


Завсегдатай

Группа: Потребители
Регистрация: 20.07.2007
Сообщений: 327
Последний раз был:
cегодня в 20:49




Все скачалось и собралось.
Большое спасибо.
Top
bornik
№3 Отправлено: 12.09.2017 - 07:37


Воспоминания - это богатства старости.

Группа: Модераторы
Регистрация: 18.08.2008
Сообщений: 966
Обитает:
Последний раз был:
cегодня в 19:45




Цитата
Polin @ 11.09.2017 - 11:30
Все скачалось и собралось.
Большое спасибо.

И Вам, Polin, спасибо за добрую весть. happy_fly.gif


--------------------
Безоблачная старость – это миф,
Поскольку наша память – ширь морская,
И к ночи начинается прилив,
Со дна обломки прошлого таская.
Игорь Губерман

Скрыть подпись
Top
1 человек просматривает эту тему (1 гость)
« Предыдущая тема | Мир вокруг нас | Следующая тема »


 



[Script Execution time: 0,0336]   [23 queries used]   [GZIP enabled]