Заходят многие - остаются лучшие!
Здравствуйте Гость ( Вход | Регистрация ) Выслать повторно письмо для активации
Вход
Ваше имя Пароль Забыли пароль?
Запомнить Вас?
Войти скрытым?



Новые сообщения раздела  

 

 Кронштадтский морской собор (2013), RTG Production Studios
bornik
  №1 Отправлено: 12.06.2018 - 17:58


Воспоминания - это богатства старости.

Группа: Модераторы
Регистрация: 18.08.2008
Сообщений: 1025
Обитает:
Последний раз был:
cегодня в 02:28




Кронштадтский морской собор (2013)



«Кронштадтский морской собор» (Никольский ставропигиальный Морской собор) — построенный последним, самый крупный из морских соборов Российской империи. Воздвигнут в 1903—1913 гг. в Кронштадте в неовизантийском стиле по проекту В. А. Косякова.
Как писал в 1910 г. сам Косяков: «С 1902 г. в г. Кронштадт производится постройка Морского Собора — памятника чинам флота, погибшим при исполнении служебного долга… Храм сооружается по высочайше одобренному проекту и во все время хода постройки является предметом особого внимания их императорских величеств».
Приход храма относится к Санкт-Петербургской епархии Русской православной церкви, располагается на территории Кронштадтского благочиннического округа. Ставропигиальный статус собора указывает на его прямое подчинение патриарху. Настоятель собора — архимандрит Алексий (Ганьжин).
С мая 2013 года считается главным храмом Военно-морского флота России и центром Военного благочиннического округа Санкт-Петербургской епархии.

Оригинальное название: Кронштадтский морской собор
Год выпуска: 2013
Жанр: Документальный, познавательный
Выпущено: Россия, , RTG Production Studios
Продолжительность: 00:23:27
Субтитры: Русские (мои)

Режиссёр: Александр Ефимов / Alexandr Efimov
Сценарист: Андрей Соколов / Andrei Sokolov

Ведущий: Евгения Альтфельд / Eugenia Altfeld

Описание: Кронштадт - небольшой город на острове в Финском заливе. Когда-то он строился как крепость, а теперь известен на всю Россию главным морским собором страны. Его в начале XX века строили всем миром. Высокий храм должен был стать памятником погибшим морякам и служить ориентиром для тех, кто возвращается из плавания. Евгения Альтфельд познакомилась с историей строительства собора и узнала о жизни отца Иоанна Сергиева, так в миру звали человека, которого впоследствии причислили к лику Святых под именем Иоанна Кронштадтского. Во многом благодаря проповеднику и был построен этот собор, а Кронштадт в конце XIX - начале XX веков стал одним из духовных центров России.
Зрителям предлагается совершить небольшую видеоэкскурсию и узнать для себя немало нового и интересного!









General
Complete name : C:\DVD documental fimls\RTG\Кронштадтский морской собор\Кронштадтский морской собор (2013).avi
Format : AVI
Format/Info : Audio Video Interleave
File size : 370 MiB
Duration : 23mn 27s
Overall bit rate : 2 203 Kbps
Writing application : VirtualDubMod 1.5.10.2 (build 2540/release)
Writing library : VirtualDubMod build 2540/release

Video
ID : 0
Format : MPEG-4 Visual
Format profile : Advanced Simple@L5
Format settings, BVOP : 2
Format settings, QPel : No
Format settings, GMC : No warppoints
Format settings, Matrix : Default (H.263)
Muxing mode : Packed bitstream
Codec ID : XVID
Codec ID/Hint : XviD
Duration : 23mn 27s
Bit rate : 2 001 Kbps
Width : 720 pixels
Height : 400 pixels
Display aspect ratio : 16:9
Frame rate : 25.000 fps
Color space : YUV
Chroma subsampling : 4:2:0
Bit depth : 8 bits
Scan type : Progressive
Compression mode : Lossy
Bits/(Pixel*Frame) : 0.278
Stream size : 336 MiB (91%)
Writing library : XviD 65

Audio
ID : 1
Format : MPEG Audio
Format version : Version 1
Format profile : Layer 3
Codec ID : 55
Codec ID/Hint : MP3
Duration : 23mn 27s
Bit rate mode : Constant
Bit rate : 192 Kbps
Channel(s) : 2 channels
Sampling rate : 48.0 KHz
Compression mode : Lossy
Stream size : 32.2 MiB (9%)
Alignment : Aligned on interleaves
Interleave, duration : 40 ms (1.00 video frame)
Interleave, preload duration : 504 ms
Writing library : LAME3.98r
Encoding settings : -m s -V 4 -q 3 -lowpass 18.6 -b 192


=================================

Исходником послужил релиз HDTV, найденный на просторах инета!

Архивы созданы RAR-архиватором с добавлением 3% на восстановление и снабжены sfv-проверочником.
Просьба к первому скачавшему отписаться о сохранности архивов на источнике раздачи.


ПРИЯТНОГО ВСЕМ ПРОСМОТРА !!!




--------------------
Безоблачная старость – это миф,
Поскольку наша память – ширь морская,
И к ночи начинается прилив,
Со дна обломки прошлого таская.
Игорь Губерман

Скрыть подпись


kyo
№2 Отправлено: 12.06.2018 - 18:19


Живёт здесь

Группа: Потребители
Регистрация: 21.07.2007
Сообщений: 1977
Обитает:
Последний раз был:
вчера в 14:55




Архивы в порядке, спасибо !
Top
bornik
№3 Отправлено: 12.06.2018 - 18:23


Воспоминания - это богатства старости.

Группа: Модераторы
Регистрация: 18.08.2008
Сообщений: 1025
Обитает:
Последний раз был:
cегодня в 02:28




Цитата
( kyo @ 12.06.2018 - 18:19)
Архивы в порядке, спасибо !

И Вам, kyo, спасибо за добрую весть. happy_fly.gif


--------------------
Безоблачная старость – это миф,
Поскольку наша память – ширь морская,
И к ночи начинается прилив,
Со дна обломки прошлого таская.
Игорь Губерман

Скрыть подпись
Top
1 человек просматривает эту тему (1 гость)
« Предыдущая тема | Мир вокруг нас | Следующая тема »


 



[Script Execution time: 0,0326]   [23 queries used]   [GZIP enabled]