Заходят многие - остаются лучшие!
Здравствуйте Гость ( Вход | Регистрация ) Выслать повторно письмо для активации
Вход
Ваше имя Пароль Забыли пароль?
Запомнить Вас?
Войти скрытым?



Новые сообщения раздела  

 

 Самое странное место в океане / National Geographic. The Sea's Strangest Square Mile (2011), National Geographic
bornik
  №1 Отправлено: 7.09.2017 - 11:12


Воспоминания - это богатства старости.

Группа: Модераторы
Регистрация: 18.08.2008
Сообщений: 940
Обитает:
Последний раз был:
cегодня в 11:42




Самое странное место в океане / National Geographic. The Sea's Strangest Square Mile (2011)



«Самое странное место в океане» - пролив между индонезийскими островами Лембех и Сулавеси казалось бы обыкновенный участок моря, но на самом деле это самое странное и самое таинственное место в мировом океане.

Название: Самое странное место в океане
Оригинальное название: The Sea's Strangest Square Mile
Год выпуска: 2011
Жанр: Документальный, природа, фауна, флора
Выпущено: Великобритания, Shark Bay Films
Продолжительность: 00:44:58
Субтитры: Русские (мои)


Режиссёр: Джон Бойл / John Boyle


Программа озвучена студией "АРК•ТВ"
Текст читает: Денис Некрасов


Описание: Перед нами великолепная Индонезия с ее роскошной природой. Флора и фауна этой страны поистине потрясают воображение любого человека, прибывшего полюбоваться на эти райские пейзажи. Кажется, что этот участок моря – самый обычный. Ну что здесь такого? Море как море. Но такое есть. Именно это место считается самым таинственным. На ровном морском дне обитают странные существа, которые наблюдают за всеми, кто вторгается в их царство. А еще есть хищники. Они скрываются, поэтому их не видно. Место это загадочное и кажется мрачным. Если посмотреть, то жизни вроде бы нет. А пейзаж похож на Луну. Но обитателям этих мест нужно выживать. В проливе живут очень удивительные виды – разных форм и цветов. Но они умеют выживать в самых разных уголках и искать укромные убежища.








General
Complete name : C:\DVD documental fimls\Самое странное место в океане\Самое странное место в океане (2011).avi
Format : AVI
Format/Info : Audio Video Interleave
File size : 709 MiB
Duration : 44mn 58s
Overall bit rate : 2 205 Kbps
Writing application : VirtualDubMod 1.5.10.2 (build 2540/release)
Writing library : VirtualDubMod build 2540/release

Video
ID : 0
Format : MPEG-4 Visual
Format profile : Advanced Simple@L5
Format settings, BVOP : 2
Format settings, QPel : No
Format settings, GMC : No warppoints
Format settings, Matrix : Default (H.263)
Muxing mode : Packed bitstream
Codec ID : XVID
Codec ID/Hint : XviD
Duration : 44mn 58s
Bit rate : 2 004 Kbps
Width : 720 pixels
Height : 400 pixels
Display aspect ratio : 16:9
Frame rate : 24.915 fps
Color space : YUV
Chroma subsampling : 4:2:0
Bit depth : 8 bits
Scan type : Progressive
Compression mode : Lossy
Bits/(Pixel*Frame) : 0.279
Stream size : 645 MiB (91%)
Writing library : XviD 65

Audio
ID : 1
Format : MPEG Audio
Format version : Version 1
Format profile : Layer 3
Mode : Joint stereo
Mode extension : MS Stereo
Codec ID : 55
Codec ID/Hint : MP3
Duration : 44mn 58s
Bit rate mode : Constant
Bit rate : 192 Kbps
Channel(s) : 2 channels
Sampling rate : 48.0 KHz
Compression mode : Lossy
Stream size : 61.8 MiB (9%)
Alignment : Aligned on interleaves
Interleave, duration : 40 ms (1.00 video frame)
Interleave, preload duration : 504 ms
Writing library : LAME3.98r
Encoding settings : -m j -V 4 -q 3 -lowpass 18.6 -b 192


Записались на автоматическое включение в очередь: Alevtina, Nadejdaenergia, baziss, grival406, медикус

Если вы хотите, чтобы вас автоматически ставили в очередь на следующие фильмы о природе,
- сообщите об этом в теме последней раздачи.


=================================

Исходником послужил релиз HDTV, найденный на просторах инета!

Архивы созданы RAR-архиватором с добавлением 3% на восстановление и снабжены sfv-проверочником.
Просьба к первому скачавшему отписаться о сохранности архивов на источнике раздачи.

Раздача рассчитана на месяц.

ПРИЯТНОГО ВСЕМ ПРОСМОТРА !!!




--------------------
Безоблачная старость – это миф,
Поскольку наша память – ширь морская,
И к ночи начинается прилив,
Со дна обломки прошлого таская.
Игорь Губерман

Скрыть подпись


RussianGuy
№2 Отправлено: 7.09.2017 - 11:26


Завсегдатай

Группа: Потребители
Регистрация: 12.02.2007
Сообщений: 322
Обитает:
Последний раз был:
cегодня в 11:10




Все скачалось и собралось. Спасибо
Top
bornik
№3 Отправлено: 7.09.2017 - 12:07


Воспоминания - это богатства старости.

Группа: Модераторы
Регистрация: 18.08.2008
Сообщений: 940
Обитает:
Последний раз был:
cегодня в 11:42




Цитата
RussianGuy @ 7.09.2017 - 11:26
Все скачалось и собралось. Спасибо

И Вам, RussianGuy, спасибо за добрую весть. happy_fly.gif


--------------------
Безоблачная старость – это миф,
Поскольку наша память – ширь морская,
И к ночи начинается прилив,
Со дна обломки прошлого таская.
Игорь Губерман

Скрыть подпись
Top
1 человек просматривает эту тему (1 гость)
« Предыдущая тема | Мир вокруг нас | Следующая тема »


 



[Script Execution time: 0,0260]   [22 queries used]   [GZIP enabled]