Заходят многие - остаются лучшие!
Здравствуйте Гость ( Вход | Регистрация ) Выслать повторно письмо для активации
Вход
Ваше имя Пароль Забыли пароль?
Запомнить Вас?
Войти скрытым?



 Правила раздела Новые сообщения раздела  


 

 Парень из нашего города (1942), Драма,военный;Реж.-А.Столпер,Б.Иванов;Глав.роли-Н.Крючков,Л.Смирнова
SanSan48
  №1 Отправлено: 27.06.2016 - 13:15


"Спартак" - ЧЕМПИОН!!!

Группа: Пользователи
Регистрация: 28.12.2009
Сообщений: 1740
Обитает:
Последний раз был:
вчера в 17:52




Парень из нашего города (1942) [Полная версия]



Предыдущие раздачи:
17.06.2015 (DVDrip) (Архив)
14.05.2015 (DVDrip)
31.08.2008 (DVDrip)

Жанр: драма, военный
Выпущено: СССР, Центральная объединенная кино-студия художественных фильмов [ЦОКС (г. Алма-Ата)]
Год выпуска: 1942
Премьера (СССР): 31 августа 1942
Премьера (мир): 6 октября 1943 (США), 5 января 1945 (Швеция)
Сценарист: Константин Симонов
Операторы: Сергей Уралов, Самуил Рубашкин, Борис Горбачев
Композитор: Николай Крюков
Художники: Арнольд Вайсфельд, Иосиф Шпинель, Федор Красный, Михаил Кроткин
Монтажёр: Анна Кульганек
Режиссёр комбинированных съёмок: Александр Птушко

Режиссёры: Александр Столпер, Борис Иванов

В ролях:
Николай Крючков … Сергей Луконин
Николай Боголюбов … Аркадий Андреевич Бурмин
Лидия Смирнова … Варя Луконина-Бурмина, сестра Аркадия Бурмина, жена Сергея Луконина
Владимир Канделаки … Вано Гулиашвили
Николай Мордвинов … Алексей Петрович Васнецов, начальник Омской танковой школы
Нина Зорская … Женя
Виктор Степанов … Севостьянов
Валерий Медведев … Петька "Волжанин"
Александр Румнев … немецкий офицер, переводчик
Пётр Любешкин … Сафонов
Анатолий Алексеев … Володя
Николай Хрящиков … связист (нет в титрах)
Георгий Георгиу … врач (ординатор) (нет в титрах)
Григорий Шпигель … немецкий офицер (нет в титрах)
Татьяна Гурецкая … медсестра в госпитале (нет в титрах)
Алексей Долинин … актер театра (нет в титрах)
Александр Баранов … танкист (нет в титрах) и другие

Описание: Героическая киноповесть по мотивам одноимённой пьесы Константина Симонова.
Саратовский парень Сергей Луконин (Николай Крючков) летом 1932 года уезжает из областного города в далекий Омск, в танковую школу. В Саратове остаётся его невеста, Варенька (Лидия Смирнова), вскоре ставшая актрисой. В 1936 году Сергей отправляется на войну в Испанию, где попадает в плен к немцам и выдаёт себя за француза, но немцы, опознав его по акценту, пытаются заставить признаться, что он русский. Однако обстоятельства складываются так, что Сергей смог сбежать. И вновь бои, в которых он старается раскрыть возможности советских танков.
В 1941 году начинается война, и он, как и миллионы советских людей, оказывается на фронте, там он встречается со старым знакомым — тем немцем, что допрашивал его в Испании.

Дополнительная информация:
Релиз:

Автор рипа: pmv

Большое спасибо за:
- исходник DVB - ItarTass
(Запись потока *.ts со спутника с ТК «Россия-Культура»)

* В данной раздаче представлена версия фильм, показанная по ТК «Культура». В отличие от версий, раздаваемых ранее на ФЕНИКСе (01:23:29), продолжительность данной версии – 01:24:46, что почти на 1 минуту 30 секунд длительнее. При восстановлении фильма были вырезаны эпизоды, в которых фигурировали портреты и слова о Сталине. В предлагаемой раздаче все эти сцены оставлены в оригинальном виде.

* В фильме звучат песни:
Броня крепка, и танки наши быстры
(Музыка: братья Покрасс. Слова: Борис Ласкин)
Жди меня
(Музыка: Матвей Блантер. Слова: Константин Симонов) - Поёт: Вера Красовицкая.
Меркнут звёзды, свеча догорает (Романс Вари)
(Музыка: Николай Крюков. Слова: Hаталья Кончаловская) - Поёт: Вера Красовицкая.

IMDb = 7,5/10 (33) - http://www.imdb.com/title/tt0033801/
Кинопоиск = 7.264 (386) - https://www.kinopoisk.ru/film/42891/

ВНИМАНИЕ!!! РИП ФОРМАТА mkv (кодек H.264) ВОСПРОИЗВОДИТСЯ НЕ НА ВСЕХ БЫТОВЫХ ВИДЕОПЛЕЕРАХ!!!

Параметры файла:
Название файла: Парень из нашего города (1942).mkv
Качество видео: SATRip-AVC
Формат видео: MKV
Размер: 1,36 ГБ (1 458 285 463 bytes)
Продолжительность: 01:24:46
Видео: AVC (H264), 720@757x568 (1.33:1), 25 fps, 2100 Kbps, 0.205 Bits/Pixel
Аудио: AC3, 48 KHz, stereo (2 ch), ~192 kbps avg



General
Unique ID : 202472632392875187619165182217421134200 (0x9852CF81269A7DC2ACE8111FE9451978)
Complete name : D:\torrents\Парень из нашего города (1942).mkv
Format : Matroska
Format version : Version 4 / Version 2
File size : 1.36 GiB
Duration : 1h 24mn
Overall bit rate : 2 294 Kbps
Encoded date : UTC 2016-06-24 13:58:18
Writing application : mkvmerge v9.2.0 ('Photograph') 64bit
Writing library : libebml v1.3.3 + libmatroska v1.4.4
DURATION : 01:24:46.080000000
NUMBER_OF_FRAMES : 158940
NUMBER_OF_BYTES : 122065920
_STATISTICS_WRITING_APP : mkvmerge v9.2.0 ('Photograph') 64bit
_STATISTICS_WRITING_DATE_UTC : 2016-06-24 13:58:18
_STATISTICS_TAGS : BPS DURATION NUMBER_OF_FRAMES NUMBER_OF_BYTES

Video
ID : 1
Format : AVC
Format/Info : Advanced Video Codec
Format profile : High@L4.1
Format settings, CABAC : Yes
Format settings, ReFrames : 16 frames
Codec ID : V_MPEG4/ISO/AVC
Duration : 1h 24mn
Bit rate : 2 100 Kbps
Width : 720 pixels
Height : 568 pixels
Display aspect ratio : 4:3
Original display aspect ratio : 5:4
Frame rate mode : Constant
Frame rate : 25.000 fps
Color space : YUV
Chroma subsampling : 4:2:0
Bit depth : 8 bits
Scan type : Progressive
Bits/(Pixel*Frame) : 0.205
Stream size : 1.22 GiB (90%)
Writing library : x264 core 146 r2538 121396c
Encoding settings : cabac=1 / ref=16 / deblock=1:0:0 / analyse=0x3:0x133 / me=umh / subme=10 / psy=1 / psy_rd=1.00:0.00 / mixed_ref=1 / me_range=24 / chroma_me=1 / trellis=2 / 8x8dct=1 / cqm=0 / deadzone=21,11 / fast_pskip=1 / chroma_qp_offset=-2 / threads=36 / lookahead_threads=4 / sliced_threads=0 / nr=0 / decimate=1 / interlaced=0 / bluray_compat=0 / constrained_intra=0 / bframes=8 / b_pyramid=2 / b_adapt=2 / b_bias=0 / direct=3 / weightb=1 / open_gop=0 / weightp=2 / keyint=250 / keyint_min=25 / scenecut=40 / intra_refresh=0 / rc_lookahead=60 / rc=2pass / mbtree=1 / bitrate=2100 / ratetol=1.0 / qcomp=0.60 / qpmin=0 / qpmax=69 / qpstep=4 / cplxblur=20.0 / qblur=0.5 / ip_ratio=1.40 / aq=1:1.00
Language : Russian
Default : Yes
Forced : No

Audio
ID : 2
Format : AC-3
Format/Info : Audio Coding 3
Mode extension : CM (complete main)
Format settings, Endianness : Big
Codec ID : A_AC3
Duration : 1h 24mn
Bit rate mode : Constant
Bit rate : 192 Kbps
Channel(s) : 2 channels
Channel positions : Front: L R
Sampling rate : 48.0 KHz
Bit depth : 16 bits
Compression mode : Lossy
Stream size : 116 MiB (8%)
Language : Russian
Default : Yes
Forced : No








МОИ РАЗДАЧИ НА ФЕНИКСе: ЗДЕСЬ




Это сообщение отредактировал SanSan48 - 27.06.2016 - 13:29


--------------------
"Спартак" - ЧЕМПИОН!!!

Скрыть подпись


pushistiy
№2 Отправлено: 27.06.2016 - 15:50


Старожил

Группа: Потребители
Регистрация: 8.12.2013
Сообщений: 556
Последний раз был:
вчера в 17:54




Господи, помилуй ! Сколько же хрущёвских "парикмахеров" поработало в это долбанное десятилетие (так называемую предтечу перестройки), чтобы исковеркать уйму советских фильмов ?! uzhas.gif
Top
grival406
№3 Отправлено: 27.06.2016 - 18:29


Старожил

Группа: Потребители
Регистрация: 3.03.2016
Сообщений: 810
Обитает:
Последний раз был:
вчера в 19:56




Огромное спасибо замечательному сайту и
раздающему, за возможность смотреть фильмы
военных лет!


--------------------
Я знаю только одного тирана, и это тихий голос совести.
Махатма Ганди

Скрыть подпись
Top
SanSan48
№4 Отправлено: 27.06.2016 - 19:14


"Спартак" - ЧЕМПИОН!!!

Группа: Пользователи
Регистрация: 28.12.2009
Сообщений: 1740
Обитает:
Последний раз был:
вчера в 17:52




Цитата
grival406 @ 27.06.2016 - 18:29
Огромное спасибо замечательному сайту и
раздающему, за возможность смотреть фильмы
военных лет!

grival406, Спасибо на добром слове!

Все слова благодарности адресуются автору рипа - PMV и автору записи трансляции - ItarTass.

Приятного всем просмотра!




Это сообщение отредактировал SanSan48 - 27.06.2016 - 19:50


--------------------
"Спартак" - ЧЕМПИОН!!!

Скрыть подпись
Top
bondsun
№5 Отправлено: 27.06.2016 - 20:36


кучерявый

Группа: Потребители
Регистрация: 17.08.2009
Сообщений: 4081
Обитает:
Последний раз был:
вчера в 21:00




Цитата
Все слова благодарности адресуются автору рипа - PMV и автору записи трансляции - ItarTass


А также самому SanSan48

happy_fly.gif


Это сообщение отредактировал bornik - 28.06.2016 - 05:43


--------------------
Пусть рушится мир весь вокруг, пополам,
Пусть часто фортуна не прёт.
Не кофе нас должен бодрить по утрам,
А тот, кто его подаёт.

happy.gif

Скрыть подпись
Top
tovarish
№6 Отправлено: 28.06.2016 - 08:45


Завсегдатай

Группа: Потребители
Регистрация: 8.07.2008
Сообщений: 304
Обитает:
Последний раз был:
вчера в 06:23




Спасибо за огромную работу! А в avi сам перекину...
Top
1 человек просматривает эту тему (1 гость)
« Предыдущая тема | Отечественное кино | Следующая тема »


 



[Script Execution time: 0,0614]   [23 queries used]   [GZIP enabled]