Заходят многие - остаются лучшие!
Здравствуйте Гость ( Вход | Регистрация ) Выслать повторно письмо для активации
Вход
Ваше имя Пароль Забыли пароль?
Запомнить Вас?
Войти скрытым?



Новые сообщения раздела  

 

 Клан сурикатов / National Geographic. Clan of the meerkat (2010), National Geographic
bornik
  №1 Отправлено: 20.03.2017 - 20:21


Воспоминания - это богатства старости.

Группа: Модераторы
Регистрация: 18.08.2008
Сообщений: 876
Обитает:
Последний раз был:
cегодня в 03:04




Клан сурикатов / National Geographic. Clan of the meerkat (2010)



«Клан сурикатов» - бушмены Калахари называют сурикат "маленькими земляными человечками". Но у этих крошек хватает духу бросить вызов пустыне. Удивительная история о семейной взаимовыручке, стойкости и смелости этих чудных созданий.

Название: Клан сурикатов
Оригинальное название: Clan of the meerkat
Год выпуска: 2010
Жанр: Документальный, природа, фауна, флора
Выпущено: США, Studio Hamburg Produktion GmbH, National Geographic
Продолжительность: 00:44:59
Субтитры: Русские (мои)

Режиссёр: Дирк Блуменберг / Dirk Blumenberg

Программа озвучена студией "АРК•ТВ"
Текст читает: Игорь Тарадайкин

Описание: Телеканал National Geographic приглашает нас проследовать в очень засушливую пустыню под названием Намиб. Этой пустыне не год и не два, она древняя, довольно не гостеприимная, если кто-то сюда попадет, то ему придется приспосабливаться. Местность довольно суровая, оказавшись здесь, вы поймете, что такое пустыня и как здесь тяжело. Но есть одно маленькое животное, которое может выжить в этой пустыне, потому что оно живет здесь ни одно – их целое племя. Если измерить это млекопитающее в полный рост, то высота составит 30 см. Это млекопитающее называется сурикат. Маленькие стойкие оловянные солдатики, они охраняют свои владения, постоянно в дозоре, постоянно на страже, ведь их существованию угрожают не только хищники, но и наступление сухого сезона. Сурикаты - это настоящая семья, это клан, а клану по плечу любые сложные задачи.







General
Complete name : C:\DVD documental fimls\Клан сурикатов\Клан сурикатов (2010).avi
Format : AVI
Format/Info : Audio Video Interleave
File size : 709 MiB
Duration : 44mn 59s
Overall bit rate : 2 205 Kbps
Writing application : VirtualDubMod 1.5.10.2 (build 2540/release)
Writing library : VirtualDubMod build 2540/release

Video
ID : 0
Format : MPEG-4 Visual
Format profile : Advanced Simple@L5
Format settings, BVOP : 2
Format settings, QPel : No
Format settings, GMC : No warppoints
Format settings, Matrix : Default (H.263)
Muxing mode : Packed bitstream
Codec ID : XVID
Codec ID/Hint : XviD
Duration : 44mn 59s
Bit rate : 2 003 Kbps
Width : 720 pixels
Height : 400 pixels
Display aspect ratio : 16:9
Frame rate : 25.000 fps
Color space : YUV
Chroma subsampling : 4:2:0
Bit depth : 8 bits
Scan type : Progressive
Compression mode : Lossy
Bits/(Pixel*Frame) : 0.278
Stream size : 644 MiB (91%)
Writing library : XviD 65

Audio
ID : 1
Format : MPEG Audio
Format version : Version 1
Format profile : Layer 3
Mode : Joint stereo
Mode extension : MS Stereo
Codec ID : 55
Codec ID/Hint : MP3
Duration : 44mn 59s
Bit rate mode : Constant
Bit rate : 192 Kbps
Channel(s) : 2 channels
Sampling rate : 48.0 KHz
Compression mode : Lossy
Stream size : 61.8 MiB (9%)
Alignment : Aligned on interleaves
Interleave, duration : 40 ms (1.00 video frame)
Interleave, preload duration : 504 ms
Writing library : LAME3.98r
Encoding settings : -m j -V 4 -q 3 -lowpass 18.6 -b 192


=================================

Исходником послужил релиз HDTV, найденный на просторах инета!

Архивы созданы RAR-архиватором с добавлением 3% на восстановление и снабжены sfv-проверочником.
Просьба к первому скачавшему отписаться о сохранности архивов на источнике раздачи.

Раздача рассчитана на месяц.

ПРИЯТНОГО ВСЕМ ПРОСМОТРА !!!




--------------------
Безоблачная старость – это миф,
Поскольку наша память – ширь морская,
И к ночи начинается прилив,
Со дна обломки прошлого таская.
Игорь Губерман

Скрыть подпись


Alevtina
№2 Отправлено: 20.03.2017 - 20:42


Время камни собирать...

Группа: Аксакалы
Регистрация: 12.02.2009
Сообщений: 5498
Обитает:
Последний раз был:
вчера в 10:46




bornik, все хорошо! Спасибо!!! zdarov1.gif


--------------------

Прохожие, купите Доброту!
Лишь за улыбку! Разве ж это много!
Исполните заветную мечту…
И хоть одну из Заповедей Бога!
Снимите маски «гордых» и «крутых»
Купите, хоть немножечко, Терпенья.
И ощутите сердцем, хоть на миг,
Всю прелесть и восторг благодаренья!
Сегодня, АКЦИЯ на Совесть и Любовь!
Притормозите «хаммер» свой, иль «буммер»!
Купите! И волнуйте свою кровь!
От этого ещё никто не умер!


Скрыть подпись
Top
bornik
№3 Отправлено: 21.03.2017 - 02:37


Воспоминания - это богатства старости.

Группа: Модераторы
Регистрация: 18.08.2008
Сообщений: 876
Обитает:
Последний раз был:
cегодня в 03:04




Цитата
( Alevtina @ 20.03.2017 - 20:42)
bornik, все хорошо! Спасибо!!! zdarov1.gif

И Вам, Alevtina, спасибо за добрую весть. happy_fly.gif


--------------------
Безоблачная старость – это миф,
Поскольку наша память – ширь морская,
И к ночи начинается прилив,
Со дна обломки прошлого таская.
Игорь Губерман

Скрыть подпись
Top
grival406
№4 Отправлено: 22.03.2017 - 18:08


Старожил

Группа: Потребители
Регистрация: 3.03.2016
Сообщений: 873
Обитает:
Последний раз был:
вчера в 18:18




А Вам, bornik, спасибо за любимый цикл!


--------------------
Я знаю только одного тирана, и это тихий голос совести.
Махатма Ганди

Скрыть подпись
Top
bornik
№5 Отправлено: 22.03.2017 - 20:10


Воспоминания - это богатства старости.

Группа: Модераторы
Регистрация: 18.08.2008
Сообщений: 876
Обитает:
Последний раз был:
cегодня в 03:04




Цитата
( grival406 @ 22.03.2017 - 18:08)
А Вам, bornik, спасибо за любимый цикл!

А Вам, grival406, спасибо добрые слова. wink2.gif


--------------------
Безоблачная старость – это миф,
Поскольку наша память – ширь морская,
И к ночи начинается прилив,
Со дна обломки прошлого таская.
Игорь Губерман

Скрыть подпись
Top
1 человек просматривает эту тему (1 гость)
« Предыдущая тема | Мир вокруг нас | Следующая тема »


 



[Script Execution time: 0,0389]   [22 queries used]   [GZIP enabled]