Заходят многие - остаются лучшие!
Здравствуйте Гость ( Вход | Регистрация ) Выслать повторно письмо для активации
Вход
Ваше имя Пароль Забыли пароль?
Запомнить Вас?
Войти скрытым?



 Правила раздела Новые сообщения раздела  


 

 Из-за него / Because Of Him (1946), Комедия,музыкальный;Реж-Р.Уоллес;Роли-Д.ДУРБИН,Ч.Лоутон,Ф.Тоун
SanSan48
  №1 Отправлено: 1.06.2018 - 15:25


"Спартак" - ЧЕМПИОН!!!

Группа: Пользователи
Регистрация: 28.12.2009
Сообщений: 1909
Обитает:
Последний раз был:
вчера в 20:15




Из-за него / Because Of Him (1946)



Предыдущие раздачи:
08.09.2012 (DVDrip)
01.10.2007 (DVDrip)

Жанр: Комедия, музыкальный, мелодрама
Выпущено: США, Universal Pictures
Год выпуска: 1946
Премьера (мир): 15 февраля 1946 (Швеция), 27 декабря 1946 (Португалия)
Сценаристы: Эдмунд Белойн / Edmund Beloin, Сиг Херциг / Sig Herzig
Оператор: Хэл Мор / Hal Mohr
Композитор: Миклош Рожа / Miklós Rózsa
Художники: Роберт Клэтворти / Robert Clatworthy, Джон Б. Гудман / John B. Goodman, Трэвис Бэнтон / Travis Banton, Оливер Эмерт / Oliver Emert, Расселл А. Гаусман / Russell A. Gausman
Монтажёр: Тед Дж. Кент / Ted J. Kent

Режиссёр: Ричард Уоллес / Richard Wallace

В ролях:
Дина Дурбин / Deanna Durbin ... Kim Walker
Чарльз Лоутон / Charles Laughton ... John Sheridan
Франшо Тоун / Franchot Tone ... Paul Taylor
Хелен Бродерик / Helen Broderick … ... Nora
Стэнли Риджес / Stanley Ridges … ... Charles Gilbert
Дональд Мик / Donald Meek … ... Martin
Реджина Уоллес / Regina Wallace … ... Head Nurse
Чарльз Хэлтон / Charles Halton … ... Mr. Dunlap
Дуглас Вуд / Douglas Wood … ... Samual Hapgood
Джоан Шоули / Joan Shawlee … ... Autograph Seeker
Джордж Андерсон / George Anderson … ... Detective
Брукс Бенедикт / Brooks Benedict … ... Playgoer
Хелен Беннетт / Helen Bennett … ... Reporter
Глэдис Блейк / Gladys Blake … ... Mabel
Джеймс Буш / James Bush … Critic

Описание: По рассказу Сига Херцига (Sig Herzig) и Эдмунда Белойна (Edmund Beloin).
Ким Уолкер — официантка, влюблённая в сцену. Она всеми силами пытается «попасть» в театр. Ей хочется получить роль, но без рекомендательных писем нет дороги в артисты. Девушка идет на хитрость.
Раздобыв автограф популярной звезды рампы великого актера и продюсера Америки Джона Шеридана она попадает в театр и получает роль. Режиссер не рад такой постановке дела и начинает враждовать с навязанной ему исполнительницей. Но как говорится от ненависти до любви один шаг…
Герои сделают этот шаг навстречу друг другу, и вся кутерьма и обман вокруг главной роли в театре забудутся. Мудрый Шеридан признает в девушке настоящий талант актрисы, а режиссер предложит ей руку и сердце.…

Дополнительная информация: Релиз:

Исходник найден в сети.

Автор рипа: pmv

Большое спасибо за:
- аудиодорожку с русской озвучкой – olegsa
- синхронизацию русской дорожки - pmv

* Этот фильм снят в те годы, когда Дина Дурбин была особенно хороша. Она уже выросла из своих детских ролей, но, став взрослой, сохранила и детское обаяние, и искренность ребенка.

IMDb = 7,0/10 (229) - https://www.imdb.com/title/tt0038341/
Кинопоиск = 7.672 (367) - https://www.kinopoisk.ru/film/iz-za-nego-1946-16648/

ВНИМАНИЕ!!! РИП ФОРМАТА mkv (кодек H.264) ВОСПРОИЗВОДИТСЯ НЕ НА ВСЕХ БЫТОВЫХ ВИДЕОПЛЕЕРАХ!!!

Параметры файла:
Название: Because of Him (1946, rus_MVO+rus_DVO+eng+sub_eng).mkv
Качество видео: WEB-DLRip-AVC
Формат видео: MKV
Размер: 1,58 ГБ (1 698 332 464 байт)
Продолжительность: 01:27:50
Перевод #1: Профессиональный (многоголосый закадровый) – студия СВ «Дубль» по заказу ГТРК «Культура»
Перевод #2: Профессиональный (двухголосый закадровый) – «Светла»
Субтитры: английские
Оригинальная аудиодорожка: английский
Видео: AVC (H264), 864x648 (4:3), 23.976 fps, 2000 kbps, 0.149 Bits/Pixel
Аудио #1: Dolby AC3, 48 kHz, stereo (2 ch), 192 kbps – русский
Аудио #2: Dolby AC3, 48 kHz, stereo (2 ch), 192 kbps – русский
Аудио #3: Dolby AC3, 48 kHz, stereo (2 ch), 192 kbps – английский



General
Unique ID : 101265998479268983413250180566143066343 (0x4C2F1F33A7CBAFCB3CDCCD1F475DE0E7)
Complete name : D:\torrents\Because of Him (1946, rus_MVO+rus_DVO+eng+sub_eng)
Format : Matroska
Format version : Version 4 / Version 2
File size : 1.46 GiB
Duration : 1 h 27 min
Overall bit rate : 2 386 kb/s
Encoded date : UTC 2018-05-23 09:52:31
Writing application : mkvmerge v23.0.0 ('The Bride Said No') 64-bit
Writing library : libebml v1.3.6 + libmatroska v1.4.9

Video
ID : 1
Format : AVC
Format/Info : Advanced Video Codec
Format profile : High@L4.1
Format settings, CABAC : Yes
Format settings, ReFrames : 14 frames
Codec ID : V_MPEG4/ISO/AVC
Duration : 1 h 27 min
Bit rate : 2 000 kb/s
Width : 864 pixels
Height : 648 pixels
Display aspect ratio : 4:3
Frame rate mode : Constant
Frame rate : 23.976 (23976/1000) FPS
Original frame rate : 23.976 (24000/1001) FPS
Color space : YUV
Chroma subsampling : 4:2:0
Bit depth : 8 bits
Scan type : Progressive
Bits/(Pixel*Frame) : 0.149
Stream size : 1.23 GiB (84%)
Writing library : x264 core 146 r2538 121396c
Encoding settings : cabac=1 / ref=14 / deblock=1:0:0 / analyse=0x3:0x133 / me=umh / subme=10 / psy=1 / psy_rd=1.00:0.00 / mixed_ref=1 / me_range=24 / chroma_me=1 / trellis=2 / 8x8dct=1 / cqm=0 / deadzone=21,11 / fast_pskip=1 / chroma_qp_offset=-2 / threads=48 / lookahead_threads=5 / sliced_threads=0 / nr=0 / decimate=1 / interlaced=0 / bluray_compat=0 / constrained_intra=0 / bframes=8 / b_pyramid=2 / b_adapt=2 / b_bias=0 / direct=3 / weightb=1 / open_gop=0 / weightp=2 / keyint=250 / keyint_min=23 / scenecut=40 / intra_refresh=0 / rc_lookahead=60 / rc=2pass / mbtree=1 / bitrate=2000 / ratetol=1.0 / qcomp=0.60 / qpmin=0 / qpmax=69 / qpstep=4 / cplxblur=20.0 / qblur=0.5 / ip_ratio=1.40 / aq=1:1.00
Language : English
Default : Yes
Forced : No

Audio #1
ID : 2
Format : AC-3
Format/Info : Audio Coding 3
Mode extension : CM (complete main)
Format settings, Endianness : Big
Codec ID : A_AC3
Duration : 1 h 27 min
Bit rate mode : Constant
Bit rate : 192 kb/s
Channel(s) : 2 channels
Channel positions : Front: L R
Sampling rate : 48.0 kHz
Frame rate : 31.250 FPS (1536 spf)
Bit depth : 16 bits
Compression mode : Lossy
Delay relative to video : 12 ms
Stream size : 121 MiB (8%)
Language : Russian
Default : Yes
Forced : No

Audio #2
ID : 3
Format : AC-3
Format/Info : Audio Coding 3
Mode extension : CM (complete main)
Format settings, Endianness : Big
Codec ID : A_AC3
Duration : 1 h 27 min
Bit rate mode : Constant
Bit rate : 192 kb/s
Channel(s) : 2 channels
Channel positions : Front: L R
Sampling rate : 48.0 kHz
Frame rate : 31.250 FPS (1536 spf)
Bit depth : 16 bits
Compression mode : Lossy
Delay relative to video : 12 ms
Stream size : 121 MiB (8%)
Language : English
Default : No
Forced : No

Text
ID : 4
Format : UTF-8
Codec ID : S_TEXT/UTF8
Codec ID/Info : UTF-8 Plain Text
Duration : 1 h 26 min
Bit rate : 76 b/s
Count of elements : 1813
Stream size : 48.4 KiB (0%)
Language : English
Default : No
Forced : No








http://fenixclub.com/index.php?showtopic=1...%ED%B8%E5%E3%EE
bm11, DVDRip, AVI, 640x480, 1.46 GB < > CaCa48, WEB-DLRip, MKV, 864x648, 1.46 GB
http://screenshotcomparison.com/comparison/114453/


МОИ РАЗДАЧИ НА ФЕНИКСе: ЗДЕСЬ




Это сообщение отредактировал SanSan48 - 1.06.2018 - 17:20


--------------------
"Спартак" - ЧЕМПИОН!!!

Скрыть подпись


OldLady
№2 Отправлено: 1.06.2018 - 18:54


секрет

Группа: Аксакалы
Регистрация: 26.03.2006
Сообщений: 3254
Последний раз был:
вчера в 19:10
19.07-21.07




Все в порядке, спасибо!
Top
SanSan48
№3 Отправлено: 1.06.2018 - 19:10


"Спартак" - ЧЕМПИОН!!!

Группа: Пользователи
Регистрация: 28.12.2009
Сообщений: 1909
Обитает:
Последний раз был:
вчера в 20:15




Цитата
( OldLady @ 1.06.2018 - 18:54)
Все в порядке, спасибо!

OldLady, Благодарю за сообщение!

Приятного всем просмотра!


--------------------
"Спартак" - ЧЕМПИОН!!!

Скрыть подпись
Top
1 человек просматривает эту тему (1 гость)
« Предыдущая тема | Зарубежные фильмы | Следующая тема »


 



[Script Execution time: 0,0340]   [23 queries used]   [GZIP enabled]