Заходят многие - остаются лучшие!
Здравствуйте Гость ( Вход | Регистрация ) Выслать повторно письмо для активации
Вход
Ваше имя Пароль Забыли пароль?
Запомнить Вас?
Войти скрытым?



 Правила раздела Новые сообщения раздела  


 

 Первая леди / The President's Lady (1953), Сьюзен Хэйуорд, Чарлтон Хестон / драма, биография
surzhoks
  №1 Отправлено: 14.09.2019 - 15:29


Живёт здесь

Группа: Аксакалы
Регистрация: 17.03.2008
Сообщений: 1175
Обитает:
Последний раз был:
9.11.2019 - 12:21




Первая леди / The President's Lady


Страна: США
Студия: 20th Century Fox Film Corporation
Жанр: драма, биография
Год выпуска: 1953
Продолжительность: 01:37:49
Режиссер: Генри Левин / Henry Levin
Композитор: Альфред Ньюман / Alfred Newman

В ролях:
Сьюзен Хэйуорд / Susan Hayward ... Рэйчел Донельсон
Чарлтон Хестон / Charlton Heston ... Эндрю Джексон
Джон МакИнтайр / John McIntire ... Джон Овертон
Фэй Бейнтер / Fay Bainter ... миссис Донельсон
Уитфилд Коннор / Whitfield Connor ... Льюис Робардс
Карл Бетц / Carl Betz ... Чарльз Дикинсон
Глэдис Хёрлбат / Gladys Hurlbut ... миссис Фарис
Рут Аттавэй / Ruth Attaway ... Молл
Чарльз Дингл / Charles Dingle ... капитан Ирвин
Нина Варела / Nina Varela ... миссис «Пичблоссом» Старк
Маргарет Вичерли / Margaret Wycherly ... миссис Робардс

Описание: История, охватывающая более 40 лет жизни седьмого президента США Эндрю Джексона, с ранних лет и дальнейшее восхождение по военной и политической лестнице, на фоне его знакомства, брака и взаимоотношений с супругой Рэйчел Донельсон, которая была обвинена конкурентами Джексона в полигамии, во время его предвыборной кампании.
Экранизация романа Ирвинга Стоуна „Первая леди, или Рейчэл и Эндрю Джэксон“.
- 20th Century Fox первоначально планировала в главных ролях снять Грегори Пека и Оливию Де Хэвилленд.
- В 1958 году актёр Чарлтон Хестон вернулся к роли генерала Эндрю Джексона в фильме „Флибустьер“.

Оскар, 1954 год
Номинации (2):
Лучшая работа художника (ч/б фильмы)
Лучшая работа художника по костюмам (ч/б фильмы)


Доп. информация:
Огромное спасибо всем причастным к релизу:
рип - Магда,
перевод и озвучивание фильма - - Алексей Яковлев,
работа со звуком - porvaliparus,
финансовая поддержка перевода и озвучивания фильма:
Магда, Lafajet, jasenka, yanaelisa, surzhoks, cementit, exact, voostorg, sindzi, Ugo927, duum100, spartakeynoir, MuxaSi, Nmaska, sapog1960, борюська, Simpun, Лямдазонд

Архивы созданы RAR-архиватором с добавлением 3% на восстановление и снабжены sfv-проверочником.
Просьба к первому скачавшему отписаться о сохранности архивов на источнике раздачи.

Раздача рассчитана на 2 месяца. На просмотр линка и скачивание 5 дней!
В случае если вы встали в очередь, а затем отказываетесь от скачивания без объяснения причин, возможен отказ в последующих моих раздачах.



Полное имя :The Presidents Lady.avi
Формат : AVI
Формат/Информация : Audio Video Interleave
Размер файла : 1,46 Гбайт
Продолжительность : 1 ч. 37 м.
Общий поток : 2136 Кбит/сек
Программа кодирования : VirtualDubMod 1.5.10.3 | www.virtualdub-fr.org || (build 2550/release)
Библиотека кодирования : VirtualDubMod build 2550/release

Видео
Идентификатор : 0
Формат : MPEG-4 Visual
Профиль формата : Advanced Simple@L5
Параметр BVOP формата : 2
Параметр QPel формата : Нет
Параметр GMC формата : Без точки перехода
Параметр матрицы формата : Default (H.263)
Идентификатор кодека : XVID
Идентификатор кодека/Подсказка : XviD
Продолжительность : 1 ч. 37 м.
Битрейт : 1738 Кбит/сек
Ширина : 704 пикселя
Высота : 528 пикселей
Соотношение сторон : 4:3
Частота кадров : 23,976 кадра/сек
Цветовое пространство : YUV
Субдискретизация насыщенности : 4:2:0
Битовая глубина : 8 бит
Тип развёртки : Прогрессивная
Метод сжатия : С потерями
Бит/(Пиксели*Кадры) : 0.195
Размер потока : 1,19 Гбайт (81%)
Библиотека кодирования : XviD 73

Аудио #1
Идентификатор : 1
Формат : AC-3
Формат/Информация : Audio Coding 3
Расширение режима : CM (complete main)
Параметр Endianness формата : Big
Идентификатор кодека : 2000
Продолжительность : 1 ч. 37 м.
Вид битрейта : Постоянный
Битрейт : 192 Кбит/сек
Каналы : 2 канала
Расположение каналов : Front: L R
Частота : 48,0 КГц
Битовая глубина : 16 бит
Метод сжатия : С потерями
Размер потока : 134 Мбайт (9%)
Выравнивание : Разделение по промежуткам
Продолжительность промежутка : 42 мс. (1,00 видеокадр)
Время предзагрузки промежутка : 500 мс.

Аудио #2
Идентификатор : 2
Формат : AC-3
Формат/Информация : Audio Coding 3
Расширение режима : CM (complete main)
Параметр Endianness формата : Big
Идентификатор кодека : 2000
Продолжительность : 1 ч. 37 м.
Вид битрейта : Постоянный
Битрейт : 192 Кбит/сек
Каналы : 2 канала
Расположение каналов : Front: L R
Частота : 48,0 КГц
Битовая глубина : 16 бит
Метод сжатия : С потерями
Размер потока : 134 Мбайт (9%)
Выравнивание : Разделение по промежуткам
Продолжительность промежутка : 42 мс. (1,00 видеокадр)
Время предзагрузки промежутка : 500 мс.




vjub58
№2 Отправлено: 14.09.2019 - 19:16


Практикующий эсквайр

Группа: Аксакалы
Регистрация: 6.12.2005
Сообщений: 5260
Обитает:
Последний раз был:
cегодня в 16:14




Спасибо, все ОК. pozdrav_buket.gif
Top
сергей0808
№3 Отправлено: 15.09.2019 - 04:44


Старожил

Группа: Пользователи
Регистрация: 5.08.2009
Сообщений: 947
Обитает:
Последний раз был:
cегодня в 07:47




Спасибо.
Top
1 человек просматривает эту тему (1 гость)
« Предыдущая тема | Зарубежные фильмы | Следующая тема »


 



[Script Execution time: 0,0519]   [22 queries used]   [GZIP enabled]