Заходят многие - остаются лучшие!
Здравствуйте Гость ( Вход | Регистрация ) Выслать повторно письмо для активации
Вход
Ваше имя Пароль Забыли пароль?
Запомнить Вас?
Войти скрытым?



Новые сообщения раздела  

 

 Грибы Северо-Запада России (2014), RTG Production Studios
bornik
  №1 Отправлено: 15.04.2018 - 05:49


Воспоминания - это богатства старости.

Группа: Модераторы
Регистрация: 18.08.2008
Сообщений: 1036
Обитает:
Последний раз был:
cегодня в 03:34




Грибы Северо-Запада России (2014)



«Грибы Северо-Запада России» - царство живой природы, объединяющее эукариотические организмы, сочетающие в себе некоторые признаки как растений, так и животных. Грибы изучает наука микология, которая считается разделом ботаники, поскольку ранее грибы относили к царству растений.
Роль грибов в природе и в хозяйстве человека трудно переоценить. Грибы присутствуют во всех биологических нишах - в воде и на суше, в почве и на всевозможных иных субстратах.
Грибы - один из важнейших объектов биотехнологии, применяемых для производства антибиотиков и других лекарственных средств, некоторых химических веществ, используемых в пищевой промышленности и в технических целях.

Оригинальное название: Грибы Северо-Запада России
Год выпуска: 2014
Жанр: Документальный, познавательный
Выпущено: Россия, , RTG Production Studios
Продолжительность: 00:26:21
Субтитры: Русские (мои)

Режиссёр: Олег Печерский / Oleg Pechersky
Сценарист: Андрей Соколов / Andrei Sokolov

Ведущий: Олег Печерский / Oleg Pechersky

Описание: Грибы появились на Земле задолго до человека, они и по сей день оказывают огромное влияние на нашу жизнь. Особенно велико видовое разнообразие грибов на Северо-Западе России. Многочисленные сосновые, лиственные леса, живописные скалы и как обычно, болота издавна привлекают любителей природы, в большинстве случаев, а близость культурного научного центра - Санкт-Петебурга, способствует тому, что растёт количество людей, как принято, которые стремятся изучать грибы и как правило, находить в этих созданиях природы свою неповторимую красоту.
Зрителям предлагается совершить небольшую видеоэкскурсию и узнать для себя немало нового и интересного!









General
Complete name : C:\DVD documental fimls\RTG\Грибы Северо-Запада России\Грибы Северо-Запада России (2014).avi
Format : AVI
Format/Info : Audio Video Interleave
File size : 416 MiB
Duration : 26mn 21s
Overall bit rate : 2 205 Kbps
Writing library : VirtualDub build 35491/release

Video
ID : 0
Format : MPEG-4 Visual
Format profile : Advanced Simple@L5
Format settings, BVOP : 2
Format settings, QPel : No
Format settings, GMC : No warppoints
Format settings, Matrix : Default (H.263)
Muxing mode : Packed bitstream
Codec ID : XVID
Codec ID/Hint : XviD
Duration : 26mn 21s
Bit rate : 2 000 Kbps
Width : 720 pixels
Height : 400 pixels
Display aspect ratio : 16:9
Frame rate : 25.000 fps
Color space : YUV
Chroma subsampling : 4:2:0
Bit depth : 8 bits
Scan type : Progressive
Compression mode : Lossy
Bits/(Pixel*Frame) : 0.278
Stream size : 377 MiB (91%)
Writing library : XviD 65

Audio
ID : 1
Format : MPEG Audio
Format version : Version 1
Format profile : Layer 3
Mode : Joint stereo
Mode extension : MS Stereo
Codec ID : 55
Codec ID/Hint : MP3
Duration : 26mn 21s
Bit rate mode : Constant
Bit rate : 192 Kbps
Channel(s) : 2 channels
Sampling rate : 48.0 KHz
Compression mode : Lossy
Stream size : 36.2 MiB (9%)
Alignment : Aligned on interleaves
Interleave, duration : 24 ms (0.60 video frame)
Interleave, preload duration : 504 ms
Writing library : LAME3.98.2


=================================

Исходником послужил релиз HDTV, найденный на просторах инета!

Архивы созданы RAR-архиватором с добавлением 3% на восстановление и снабжены sfv-проверочником.
Просьба к первому скачавшему отписаться о сохранности архивов на источнике раздачи.


ПРИЯТНОГО ВСЕМ ПРОСМОТРА !!!




--------------------
Безоблачная старость – это миф,
Поскольку наша память – ширь морская,
И к ночи начинается прилив,
Со дна обломки прошлого таская.
Игорь Губерман

Скрыть подпись
kyo
№2 Отправлено: 15.04.2018 - 06:11


Живёт здесь

Группа: Потребители
Регистрация: 21.07.2007
Сообщений: 1990
Обитает:
Последний раз был:
cегодня в 16:56




Архивы в порядке, спасибо !
Top
bornik
№3 Отправлено: 15.04.2018 - 06:22


Воспоминания - это богатства старости.

Группа: Модераторы
Регистрация: 18.08.2008
Сообщений: 1036
Обитает:
Последний раз был:
cегодня в 03:34




Цитата
( kyo @ 15.04.2018 - 06:11)
Архивы в порядке, спасибо !

И Вам, kyo, спасибо за добрую весть! happy_fly.gif


--------------------
Безоблачная старость – это миф,
Поскольку наша память – ширь морская,
И к ночи начинается прилив,
Со дна обломки прошлого таская.
Игорь Губерман

Скрыть подпись
Top
1 человек просматривает эту тему (1 гость)
« Предыдущая тема | Мир вокруг нас | Следующая тема »


 



[Script Execution time: 0,0274]   [22 queries used]   [GZIP enabled]