Заходят многие - остаются лучшие!
Здравствуйте Гость ( Вход | Регистрация ) Выслать повторно письмо для активации
Вход
Ваше имя Пароль Забыли пароль?
Запомнить Вас?
Войти скрытым?



 Правила раздела Новые сообщения раздела  


 

 Блюз Пита Келли / Pete Kelly's Blues (1955) / HDRip, Джек Уэбб, Джанет Ли, Эдмонд О’Брайен, Пегги Ли / драма, музыкальный
surzhoks
  №1 Отправлено: 14.04.2018 - 11:50


Живёт здесь

Группа: Аксакалы
Регистрация: 17.03.2008
Сообщений: 1065
Обитает:
Последний раз был:
позавчера в 20:26




Блюз Пита Келли / Pete Kelly's Blues


Страна: США
Студия: Mark VII Ltd.
Жанр: драма, криминал, музыкальный
Год выпуска: 1955
Продолжительность: 01:35:23
Режиссер: Джек Уэбб / Jack Webb
Композитор: Дэвид Баттолф / David Buttolph, Рэй Хайндорф / Ray Heindorf
Субтитры: русские (полные и только на песни, перевод - Северный)
В ролях:
Джек Уэбб / Jack Webb ... Pete Kelly
Джанет Ли / Janet Leigh ... Ivy Conrad
Эдмонд О’Брайен / Edmond O'Brien ... Fran McCarg
Пегги Ли / Peggy Lee ... Rose Hopkins
Энди Дивайн / Andy Devine ... George Tenell
Ли Марвин / Lee Marvin ... Al Gannaway
Элла Фицджералд / Ella Fitzgerald ... Maggie Jackson
Мартин Милнер / Martin Milner ... Joey Firestone
Тан Вьенн / Than Wyenn ... Rudy Shulak
Херберт Эллис / Herbert Ellis (в титрах: Herb Ellis) ... Bedido
Джон Дэннис / John Dennis ... Guy Bettenhouser
Джейн Мэнсфилд / Jayne Mansfield ... Cigarette Girl

Описание: 1927 год, Канзас-Сити. Тяжелые будни маленького джазового оркестра во времена сухого закона. Трубач Пит Келли, управляющий оркестром, переживает не самые радостные дни. Например, приходится играть на заказ для разных заносчивых барышень с дурной репутацией. Одна такая - Айви Конрад - поклонница Пита и досаждает ему своим заигрыванием. Или же приходится держать оборону против рэкетиров: гангстер Фрэн МакКарг хочет получать процент от скудных заработков коллектива, предлагая взамен свою защиту. В оркестре разногласия среди музыкантов. Пит оказывается на грани отчаяния...
- Джек Уэбб действительно знал, как играть на корнете. Он любил джаз-музыку и, будучи мальчиком, получил в подарок корнет от музыканта, который жил в доме его родителей. Хотя Джек Уэбб никогда так и не овладел инструментом, его обращение с корнетом в этом фильме безупречно.

Оскар, 1956 год
Номинации (1): Лучшая женская роль второго плана (Пегги Ли)
Доп. информация:
Огромное спасибо всем причастным к релизу:
рип - Магда,
перевод фильма на русский - Северный,
озвучивание фильма (по русским субтитрам) - fiendover (Виктор Рутилов),
работа со звуком - AlekceyR76,
финансовая поддержка перевода и озвучивания фильма:
Магда, Lafajet, jasenka, yanaelisa, keg38, STICK24, елена 22, voostorg, exact, Ugo927, surzhoks, Patsy+, leoder, Simpun

Архивы созданы RAR-архиватором с добавлением 3% на восстановление и снабжены sfv-проверочником.
Просьба к первому скачавшему отписаться о сохранности архивов на источнике раздачи.

Раздача рассчитана на 2 месяца. На просмотр линка и скачивание 5 дней!
В случае если вы встали в очередь, а затем отказываетесь от скачивания без объяснения причин, возможен отказ в последующих моих раздачах.



Полное имя :Pete Kelly's Blues.avi
Формат : AVI
Формат/Информация : Audio Video Interleave
Размер файла : 1,46 Гбайт
Продолжительность : 1 ч. 35 м.
Общий поток : 2192 Кбит/сек
Программа кодирования : VirtualDubMod 1.5.10.3 | www.virtualdub-fr.org || (build 2550/release)
Библиотека кодирования : VirtualDubMod build 2550/release

Видео
Идентификатор : 0
Формат : MPEG-4 Visual
Профиль формата : Advanced Simple@L5
Параметр BVOP формата : 2
Параметр QPel формата : Нет
Параметр GMC формата : Без точки перехода
Параметр матрицы формата : Default (H.263)
Идентификатор кодека : DX50
Идентификатор кодека/Подсказка : DivX 5
Продолжительность : 1 ч. 35 м.
Битрейт : 1410 Кбит/сек
Ширина : 704 пикселя
Высота : 272 пикселя
Соотношение сторон : 2,588
Частота кадров : 23,976 кадра/сек
Цветовое пространство : YUV
Субдискретизация насыщенности : 4:2:0
Битовая глубина : 8 бит
Тип развёртки : Прогрессивная
Метод сжатия : С потерями
Бит/(Пиксели*Кадры) : 0.307
Размер потока : 962 Мбайт (64%)
Библиотека кодирования : XviD 73

Аудио #1
Идентификатор : 1
Формат : AC-3
Формат/Информация : Audio Coding 3
Расширение режима : CM (complete main)
Параметр Endianness формата : Big
Идентификатор кодека : 2000
Продолжительность : 1 ч. 35 м.
Вид битрейта : Постоянный
Битрейт : 384 Кбит/сек
Каналы : 6 каналов
Расположение каналов : Front: L C R, Side: L R, LFE
Частота : 48,0 КГц
Битовая глубина : 16 бит
Метод сжатия : С потерями
Размер потока : 262 Мбайт (18%)
Выравнивание : Разделение по промежуткам
Продолжительность промежутка : 42 мс. (1,00 видеокадр)
Время предзагрузки промежутка : 500 мс.

Аудио #2
Идентификатор : 2
Формат : AC-3
Формат/Информация : Audio Coding 3
Расширение режима : CM (complete main)
Параметр Endianness формата : Big
Идентификатор кодека : 2000
Продолжительность : 1 ч. 35 м.
Вид битрейта : Постоянный
Битрейт : 384 Кбит/сек
Каналы : 6 каналов
Расположение каналов : Front: L C R, Side: L R, LFE
Частота : 48,0 КГц
Битовая глубина : 16 бит
Метод сжатия : С потерями
Размер потока : 262 Мбайт (18%)
Выравнивание : Разделение по промежуткам
Продолжительность промежутка : 42 мс. (1,00 видеокадр)
Время предзагрузки промежутка : 500 мс.




kyo
№2 Отправлено: 14.04.2018 - 12:56


Живёт здесь

Группа: Потребители
Регистрация: 21.07.2007
Сообщений: 1988
Обитает:
Последний раз был:
cегодня в 21:54




Архивы в порядке, спасибо !
Top
oster47
№3 Отправлено: 14.04.2018 - 12:59


Посетитель

Группа: Потребители
Регистрация: 25.05.2010
Сообщений: 295
Обитает:
Последний раз был:
cегодня в 20:44




скачалось, собралось, спасибо...
Top
1 человек просматривает эту тему (1 гость)
« Предыдущая тема | Зарубежные фильмы | Следующая тема »


 



[Script Execution time: 0,0175]   [23 queries used]   [GZIP enabled]