Заходят многие - остаются лучшие!
Здравствуйте Гость ( Вход | Регистрация ) Выслать повторно письмо для активации
Вход
Ваше имя Пароль Забыли пароль?
Запомнить Вас?
Войти скрытым?



 Правила раздела Новые сообщения раздела  


 

 Он был ее мужчиной / He Was Her Man (1934), Джеймс Кэгни, Джоан Блонделл / драма
surzhoks
  №1 Отправлено: 19.10.2019 - 12:27


Живёт здесь

Группа: Аксакалы
Регистрация: 17.03.2008
Сообщений: 1175
Обитает:
Последний раз был:
9.11.2019 - 12:21




Он был ее мужчиной / He Was Her Man


Страна: США
Студия: The Vitaphone Corporation, Warner Bros. Pictures
Жанр: драма
Год выпуска: 1934
Продолжительность: 01:09:50
Режиссер: Ллойд Бэйкон / Lloyd Bacon
Композитор: Бернхард Каун / Bernhard Kaun

В ролях:
Джеймс Кэгни / James Cagney ... Flicker Hayes, aka Jerry Allen
Джоан Блонделл / Joan Blondell ... Rose Lawrence
Виктор Джори / Victor Jory ... Nick Gardella
Фрэнк Крэвен / Frank Craven ... Pop Sims, aka Jim Parker
Сара Падден / Sarah Padden ... Mrs. Gardella
Харольд Хубер / Harold Huber ... J.C. Ward, Curly's Hitman
Расселл Хоптон / Russell Hopton ... Monk, Curly's Hitman
Ральф Харольд / Ralf Harolde ... Frank «Red» Deering
Джон Кволен / John Qualen ... Dutch, Santa Avila's Cabbie
Брэдли Пейдж / Bradley Page ... Dan «Danny» Curly

Описание: Фликер Хейс, недавно вышедший из тюрьмы, полон решимости отомстить бывшим подельникам, виновным в его заключении. Он выдаёт их полиции, после чего ему ничего другого не остаётся, как удариться в бега. Случайно он встречает бывшую проститутку Роуз, которая делиться с ним планами уехать в маленькую рыбацкую деревню, где её ждёт жених. Фликер решает, что такая деревушка может стать для него идеальным местом, чтобы укрыться. Он предлагает Роуз себя в качестве попутчика...

Доп. информация:
Огромное спасибо всем причастным к релизу:
рип - Магда,
перевод и озвучивание фильма- Алексей Яковлев,
работа со звуком - AlekceyR76,
финансовая поддержка перевода и озвучивания фильма:
Магда, Lafajet, jasenka, yanaelisa, Floret, sindzi, елена 22, борюська, voostorg, surzhoks, Ugo927, MuxaSi, Лямдазонд, leoder, duum100, spartakeynoir

Архивы созданы RAR-архиватором с добавлением 3% на восстановление и снабжены sfv-проверочником.
Просьба к первому скачавшему отписаться о сохранности архивов на источнике раздачи.

Раздача рассчитана на 2 месяца. На просмотр линка и скачивание 5 дней!
В случае если вы встали в очередь, а затем отказываетесь от скачивания без объяснения причин, возможен отказ в последующих моих раздачах.



Полное имя :He Was Her Man.avi
Формат : AVI
Формат/Информация : Audio Video Interleave
Размер файла : 1,36 Гбайт
Продолжительность : 1 ч. 9 м.
Общий поток : 2796 Кбит/сек
Программа кодирования : VirtualDubMod 1.5.10.3 | www.virtualdub-fr.org || (build 2550/release)
Библиотека кодирования : VirtualDubMod build 2550/release

Видео
Идентификатор : 0
Формат : MPEG-4 Visual
Профиль формата : Advanced Simple@L5
Параметр BVOP формата : 2
Параметр QPel формата : Нет
Параметр GMC формата : Без точки перехода
Параметр матрицы формата : Default (H.263)
Идентификатор кодека : XVID
Идентификатор кодека/Подсказка : XviD
Продолжительность : 1 ч. 9 м.
Битрейт : 2398 Кбит/сек
Ширина : 640 пикселей
Высота : 480 пикселей
Соотношение сторон : 4:3
Частота кадров : 23,976 кадра/сек
Цветовое пространство : YUV
Субдискретизация насыщенности : 4:2:0
Битовая глубина : 8 бит
Тип развёртки : Прогрессивная
Метод сжатия : С потерями
Бит/(Пиксели*Кадры) : 0.326
Размер потока : 1,17 Гбайт (86%)
Библиотека кодирования : XviD 73

Аудио #1
Идентификатор : 1
Формат : AC-3
Формат/Информация : Audio Coding 3
Расширение режима : CM (complete main)
Параметр Endianness формата : Big
Идентификатор кодека : 2000
Продолжительность : 1 ч. 9 м.
Вид битрейта : Постоянный
Битрейт : 192 Кбит/сек
Каналы : 2 канала
Расположение каналов : Front: L R
Частота : 48,0 КГц
Битовая глубина : 16 бит
Метод сжатия : С потерями
Размер потока : 95,9 Мбайт (7%)
Выравнивание : Разделение по промежуткам
Продолжительность промежутка : 42 мс. (1,00 видеокадр)
Время предзагрузки промежутка : 500 мс.

Аудио #2
Идентификатор : 2
Формат : AC-3
Формат/Информация : Audio Coding 3
Расширение режима : CM (complete main)
Параметр Endianness формата : Big
Идентификатор кодека : 2000
Продолжительность : 1 ч. 9 м.
Вид битрейта : Постоянный
Битрейт : 192 Кбит/сек
Каналы : 2 канала
Расположение каналов : Front: L R
Частота : 48,0 КГц
Битовая глубина : 16 бит
Метод сжатия : С потерями
Размер потока : 95,9 Мбайт (7%)
Выравнивание : Разделение по промежуткам
Продолжительность промежутка : 42 мс. (1,00 видеокадр)
Время предзагрузки промежутка : 500 мс.




vjub58
№2 Отправлено: 19.10.2019 - 15:13


Практикующий эсквайр

Группа: Аксакалы
Регистрация: 6.12.2005
Сообщений: 5251
Обитает:
Последний раз был:
cегодня в 16:59




Спасибо, все ОК. pozdrav_buket.gif
Top
1 человек просматривает эту тему (1 гость)
« Предыдущая тема | Зарубежные фильмы | Следующая тема »


 



[Script Execution time: 0,0623]   [23 queries used]   [GZIP enabled]