Здравствуйте Гость ( Вход | Регистрация ) Выслать повторно письмо для активации
Вход
Ваше имя Пароль Забыли пароль?
Запомнить Вас?
Войти скрытым?



Новые сообщения раздела  

 

 Андре Рьё, Johann Strauss Orchestra. Концерт в честь коронации в Амстердаме / Andre Rieu. Coronation Concert Live in Amsterdam (2013), Classical, neo-classical, violin, BDRip
Nadejdaenergia
  №1 Отправлено: 8.01.2018 - 15:37


Когда всё плохое уходит, остаётся только хорошее.

Группа: Модераторы
Регистрация: 21.03.2012
Сообщений: 5849
Обитает:
Последний раз был:
вчера в 16:32




Andre Rieu. Coronation Concert Live in Amsterdam (2013)

Описание
Оригинальное название: Andre Rieu. Coronation Concert Live in Amsterdam
Год выхода: 2013
Жанр: Classical, neo-classical, violin
Страна: Нидерланды
Студия: Universal
Продолжительность: 01:40:14
Перевод: Без перевода
Исполнитель: Андре Рьё, Johann Strauss Orchestra

О концерте:
"Самый прекрасный день моей музыкальной карьеры и венец славы моей работы!” Это - то, как сам Андре Рьё описывает концерт, который он дал в Амстердаме с его Оркестром Иоганна Штрауса, чтобы закрыть празднества вокруг исторического случая: введение в должность короля Виллема Александра и королевы Максимы. Для любого, кто не смог добраться до Амстердама в тот день, запись этого праздничного концерта даст шанс почувствовать, что Вы были там...

Официальный сайт

В концерте прозвучали:

01 Coronation Waltz / Kroningswals
02 Wilhelmus (National Anthem)
03 Time To Say Goodbye
04 Willempie van Oranje
05 Amsterdam Medley, ARV_13
06 She Believes In Me / Zij gelooft in mij
07 Second Waltz
08 Don't Cry For Me Argentina
09 The Beatiful Blue Danube / An der schönen blauen Donau
10 Radetzky March
11 Strauss & Co.
12 Libiamo, ARV_10
13 Childrens Medley, ARV_13 / Kinder Potpourri, ARV_13
14 Opera Potpourri
15 Zorba's Dance (Sirtaki)
16 The red Rose Café/Het kleine café aan de haven
17 Amazing Grace
18 Adieu, Little Captain Of My Heart / Adieu, mein kleiner Gardeoffizier
19 It's My Life/Het laatste rondje
20 You'll Never Walk Alone








General
Complete name : Andre.Rieu-Coronation.Concert.Live.in.Amsterdam.2013.XviD.BDRip.avi
Format : AVI
Format/Info : Audio Video Interleave
File size : 1.72 GiB
Duration : 1h 40mn
Overall bit rate : 2 460 Kbps
Movie name : Andre Rieu: Coronation Concert - Live in Amsterdam 2013
Writing application : VirtualDubMod 1.5.10.2 (build 2540/release)
Writing library : VirtualDubMod build 2540/release

Video
ID : 0
Format : MPEG-4 Visual
Format profile : Advanced Simple@L5
Format settings, BVOP : 4
Format settings, QPel : No
Format settings, GMC : No warppoints
Format settings, Matrix : Default (MPEG)
Codec ID : XVID
Codec ID/Hint : XviD
Duration : 1h 40mn
Bit rate : 1 674 Kbps
Width : 720 pixels
Height : 400 pixels
Display aspect ratio : 16:9
Frame rate : 29.970 fps
Color space : YUV
Chroma subsampling : 4:2:0
Bit depth : 8 bits
Scan type : Progressive
Compression mode : Lossy
Bits/(Pixel*Frame) : 0.194
Stream size : 1.17 GiB (68%)
Writing library : XviD 64

Audio #1
ID : 1
Format : MPEG Audio
Format version : Version 1
Format profile : Layer 3
Mode : Joint stereo
Codec ID : 55
Codec ID/Hint : MP3
Duration : 1h 40mn
Bit rate mode : Constant
Bit rate : 320 Kbps
Channel count : 2 channels
Sampling rate : 48.0 KHz
Compression mode : Lossy
Stream size : 229 MiB (13%)
Alignment : Aligned on interleaves
Interleave, duration : 33 ms (1.00 video frame)
Interleave, preload duration : 504 ms
Writing library : LAME3.99r
Encoding settings : -m j -V 4 -q 0 -lowpass 20.5

Audio #2
ID : 2
Format : AC-3
Format/Info : Audio Coding 3
Mode extension : CM (complete main)
Format settings, Endianness : Big
Codec ID : 2000
Duration : 1h 40mn
Bit rate mode : Constant
Bit rate : 448 Kbps
Channel count : 6 channels
Original Channel count : 5 channels
Channel positions : Front: L C R, Side: L R
Sampling rate : 48.0 KHz
Bit depth : 16 bits
Compression mode : Lossy
Stream size : 321 MiB (18%)
Alignment : Split accross interleaves
Interleave, duration : 33 ms (1.00 video frame)
Interleave, preload duration : 500 ms


Многотомный архив RAR снабжён sfv-проверочником. Раздача рассчитана на месяц.

Просьба первым скачавшим сообщить о состоянии архива.


Хорошего настроения и приятного впечатления от этого концерта!




--------------------


1. Только надеяться - мало толка.
И все-таки, разумеется,
надо надеяться, но только
НЕ ТОЛЬКО надеяться.

2. Мудрость простейших истин признав,
Повесь на стену себе
Знак сокровенный, таинственный Знак
ВТВ.
И если к вершине долгий путь
Стал непосильным бременем –
Вспомни, прежде чем повернуть:
Всё Требует Времени…


Piet Hein Jr.

Скрыть подпись


dr12
№2 Отправлено: 8.01.2018 - 19:03


Глубокоуважаемый шкаф

Группа: Аксакалы
Регистрация: 1.09.2007
Сообщений: 3213
Обитает:
Последний раз был:
вчера в 21:40




Отличнейше скачалось и беспроблемно распаковалось.
Благодарю! buket_belokrasn.gif


--------------------
"Я нахожу, что человек может быть полезен своей стране только в том случае, если ясно видит ее; я думаю, что время слепых влюбленностей прошло, что теперь мы прежде всего обязаны родине истиной. Я люблю мое отечество, как Петр Великий научил меня любить его."
© П.Я.Чаадаев

Скрыть подпись
Top
Al1
№3 Отправлено: 8.01.2018 - 19:11


Попрошу без ярлыков!

Группа: Потребители
Регистрация: 12.03.2010
Сообщений: 427
Последний раз был:
позавчера в 16:52




OK на всех этапах.
Спасибо!
Top
Nadejdaenergia
№4 Отправлено: 9.01.2018 - 08:28


Когда всё плохое уходит, остаётся только хорошее.

Группа: Модераторы
Регистрация: 21.03.2012
Сообщений: 5849
Обитает:
Последний раз был:
вчера в 16:32




dr12, Al1, благодарю за информацию!


--------------------


1. Только надеяться - мало толка.
И все-таки, разумеется,
надо надеяться, но только
НЕ ТОЛЬКО надеяться.

2. Мудрость простейших истин признав,
Повесь на стену себе
Знак сокровенный, таинственный Знак
ВТВ.
И если к вершине долгий путь
Стал непосильным бременем –
Вспомни, прежде чем повернуть:
Всё Требует Времени…


Piet Hein Jr.

Скрыть подпись
Top
1 человек просматривает эту тему (1 гость)
« Предыдущая тема | Музыкальное видео | Следующая тема »


 



[Script Execution time: 0,0251]   [22 queries used]   [GZIP enabled]