Заходят многие - остаются лучшие!
Здравствуйте Гость ( Вход | Регистрация ) Выслать повторно письмо для активации
Вход
Ваше имя Пароль Забыли пароль?
Запомнить Вас?
Войти скрытым?



Новые сообщения раздела  

 

 Библейский сюжет. Владимир Маяковский. Мистерия-буфф (2018), Авторская программа Дмитрия Менделеева
Alevtina
  №1 Отправлено: 6.12.2018 - 09:27


Время камни собирать...

Группа: Аксакалы
Регистрация: 12.02.2009
Сообщений: 5709
Обитает:
Последний раз был:
cегодня в 12:44




Библейский сюжет. Владимир Маяковский. Мистерия-буфф



В рамках проекта -

Год выпуска: 2018

Страна: Россия

Режиссер: Ольга Жукова

Студия: ООО Студия "Неофит"

Автор и ведущий: Дмитрий Менделеев


Обращение великих художников к Библии никогда не заканчивалось только иллюстрацией того или иного сюжета Вечной Книги. Оно всегда предполагало личное осмысление. Художник выбирал библейскую историю, чтобы рассказать о себе, о своем времени, чтобы глубже постичь смысл происходящего.
Язык образов Святого Писания был универсален и понятен для всех. Но теперь для нас этот язык наполовину забыт. Мы уже не можем так ясно, с листа, читать всё, что говорили в своих произведениях художники, поэты, композиторы и писатели прошлого. Мы более опираемся на чувственное восприятие, которое все же является только частью замысла, его внешней стороной. В программе "Библейский сюжет" делается попытка соединить "прекрасного разрозненные части", по-другому взглянуть на всемирно известные произведения искусства, рассказать о судьбе их создателей.


Описание:

"Сначала накрапывало, потом пошло. Дальше больше, больше выше, хлынуло в улицы, рвануло крыши... Все: Тише! Тише! Француз: Слышите? Слышите топот? Множество приближающихся голосов: Потоп! потопом! потопу! о потопе! потопа!". Владимир Маяковский. "Мистерия-буфф. Героическое, эпическое и сатирическое изображение нашей эпохи".

Он хотел, чтобы первую советскую пьесу непременно поставили к первой годовщине революции. Конечно, по форме это – духовное действо; средневековая площадь перед собором, мистерия.... Серьёзные вещи перемешаны с весёлыми сценками. То есть, с одной стороны, Маяковский закладывает в "Мистерии-Буфф" основание советской драматургии, когда гимном становится Интернационал – "всё разрушим"... С другой – у него нет другого языка, кроме языка Библии – для описания таких катастроф. Поэтому, места действия: Ковчег, Ад, Рай, Земля обетованная; действуют черти и святые, чистые и нечистые... Это парадокс: человек-Маяковский искренне принял большевиков, а живший в нём поэт нарисовал несомненную библейскую картину грехопадения и потопа, вавилонского столпотворения и апокалипсиса, выставив революционеров "нечистыми", а их вождя – Человека – просто, антихристом…


Media-info:

Format : AVI
Format/Info : Audio Video Interleave
File size : 353 MiB
Duration : 25mn 35s
Overall bit rate : 1 927 Kbps

Video
ID : 0
Format : MPEG-4 Visual
Format profile : Advanced Simple@L5
Format settings, BVOP : Yes
Format settings, QPel : No
Format settings, GMC : No warppoints
Format settings, Matrix : Default (H.263)
Codec ID : XVID
Codec ID/Hint : XviD
Duration : 25mn 35s
Bit rate : 1 787 Kbps
Width : 720 pixels
Height : 400 pixels
Display aspect ratio : 16:9
Frame rate : 25.000 fps
Color space : YUV
Chroma subsampling : 4:2:0
Bit depth : 8 bits
Scan type : Progressive
Bits/(Pixel*Frame) : 0.248
Stream size : 327 MiB (93%)
Writing library : XviD 64

Audio
ID : 1
Format : MPEG Audio
Format version : Version 1
Format profile : Layer 3
Codec ID : 55
Codec ID/Hint : MP3
Duration : 25mn 34s
Bit rate mode : Constant
Bit rate : 128 Kbps
Channel(s) : 2 channels
Sampling rate : 44.1 KHz
Stream size : 23.4 MiB (7%)
Alignment : Split accross interleaves
Interleave, duration : 26 ms (0.65 video frame)



Cкриншоты:






Записались на автоматическое включение в очередь:
baziss, Snara, valbar, vyur, RussianGuy, Marrina, медикус, mosk7, Nadejdaenergia, ILIA, Masjanja, ajlinn, oldfanat, bondsun, mikhailk, medandrey, oster47, Tanjusha, andrusenko, rittaa, medush, rucula

Если вы хотите, чтобы вас автоматически ставили в очередь на следующие выпуски данного цикла, - сообщите об этом в теме последней раздачи.




Это сообщение отредактировал Alevtina - 14.12.2018 - 18:42


--------------------

Прохожие, купите Доброту!
Лишь за улыбку! Разве ж это много!
Исполните заветную мечту…
И хоть одну из Заповедей Бога!
Снимите маски «гордых» и «крутых»
Купите, хоть немножечко, Терпенья.
И ощутите сердцем, хоть на миг,
Всю прелесть и восторг благодаренья!
Сегодня, АКЦИЯ на Совесть и Любовь!
Притормозите «хаммер» свой, иль «буммер»!
Купите! И волнуйте свою кровь!
От этого ещё никто не умер!


Скрыть подпись


RussianGuy
№2 Отправлено: 6.12.2018 - 14:29


Старожил

Группа: Потребители
Регистрация: 12.02.2007
Сообщений: 500
Обитает:
На форуме с:
cегодня в 14:51




Архив в порядке. Спасибо
Top
Alevtina
№3 Отправлено: 6.12.2018 - 18:03


Время камни собирать...

Группа: Аксакалы
Регистрация: 12.02.2009
Сообщений: 5709
Обитает:
Последний раз был:
cегодня в 12:44




RussianGuy,
Цитата
Архив в порядке. Спасибо
благодарю за весть!


--------------------

Прохожие, купите Доброту!
Лишь за улыбку! Разве ж это много!
Исполните заветную мечту…
И хоть одну из Заповедей Бога!
Снимите маски «гордых» и «крутых»
Купите, хоть немножечко, Терпенья.
И ощутите сердцем, хоть на миг,
Всю прелесть и восторг благодаренья!
Сегодня, АКЦИЯ на Совесть и Любовь!
Притормозите «хаммер» свой, иль «буммер»!
Купите! И волнуйте свою кровь!
От этого ещё никто не умер!


Скрыть подпись
Top
1 человек просматривает эту тему (1 гость)
« Предыдущая тема | Мир и люди искусства | Следующая тема »


 



[Script Execution time: 0,0314]   [23 queries used]   [GZIP enabled]