Здравствуйте Гость ( Вход | Регистрация ) Выслать повторно письмо для активации
Вход
Ваше имя Пароль Забыли пароль?
Запомнить Вас?
Войти скрытым?



Новые сообщения раздела  

 

 Моя cоветская Юность (2015) TVRip, Воспоминания юности
bornik
  №1 Отправлено: 4.01.2017 - 11:03


Воспоминания - это богатства старости.

Группа: Модераторы
Регистрация: 18.08.2008
Сообщений: 800
Обитает:
Последний раз был:
вчера в 20:41




Моя cоветская Юность (2015)



Предыдущая раздача "Моё cоветское Детство" (2014)

Год выпуска: 2015
Жанр: Документальный
Выпущено: Россия, Телекомпания - «5 КАНАЛ»
Продолжительность: 01:41:25

Режиссёр: Евгения Гончар
Сценарист: Алексей Васильев
Оператор: Виктор Гончар
Оригинальная музыка: Максим Алексеев

Ведущий: Кирилл Набутов

Участники: Олег Митяев, Михаил Боярский, Николай Фоменко, Дмитрий Маликов, Трофим, Тутта Ларсен, Сергей Трофимов, Виктор Рыбин и Наталья Сенчукова и другие знаменитости.

Описание: Погрузиться в настроение любимого с детства праздника, зрителям поможет проект, собравший драгоценные воспоминания о "Моей советской юности". Многие знаменитости расскажут о том, как вступали в комсомол и шли в походы, пели под гитару и строили планы на жизнь, получали первые самостоятельно заработанные деньги и доставали джинсы.













General
Complete name : C:\Cinema\Моё советское...\Моя cоветская Юность (2015)\MoSovJyn.avi
Format : AVI
Format/Info : Audio Video Interleave
File size : 1.52 GiB
Duration : 1h 41mn
Overall bit rate : 2 140 Kbps
Writing application : VirtualDubMod 1.5.10.2 (build 2540/release)
Writing library : VirtualDubMod build 2540/release

Video
ID : 0
Format : MPEG-4 Visual
Format profile : Advanced Simple@L5
Format settings, BVOP : 2
Format settings, QPel : No
Format settings, GMC : No warppoints
Format settings, Matrix : Default (H.263)
Muxing mode : Packed bitstream
Codec ID : XVID
Codec ID/Hint : XviD
Duration : 1h 41mn
Bit rate : 2 002 Kbps
Width : 720 pixels
Height : 400 pixels
Display aspect ratio : 16:9
Frame rate : 25.000 fps
Color space : YUV
Chroma subsampling : 4:2:0
Bit depth : 8 bits
Scan type : Progressive
Compression mode : Lossy
Bits/(Pixel*Frame) : 0.278
Stream size : 1.42 GiB (94%)
Writing library : XviD 65

Audio
ID : 1
Format : MPEG Audio
Format version : Version 1
Format profile : Layer 3
Mode : Joint stereo
Mode extension : MS Stereo
Codec ID : 55
Codec ID/Hint : MP3
Duration : 1h 41mn
Bit rate mode : Constant
Bit rate : 128 Kbps
Channel(s) : 2 channels
Sampling rate : 48.0 KHz
Compression mode : Lossy
Stream size : 92.9 MiB (6%)
Alignment : Aligned on interleaves
Interleave, duration : 40 ms (1.00 video frame)
Interleave, preload duration : 504 ms
Writing library : LAME3.98r
Encoding settings : -m j -V 4 -q 3 -lowpass 17 -b 128


Последующая раздача "Моя cоветская Молодость" (2016)
Последующая раздача "Мой советский Новый год" (2017)

=================================

Исходником послужил релиз DVB, найденный на просторах инета!

Архивы созданы RAR-архиватором с добавлением 3% на восстановление и снабжены sfv-проверочником.
Просьба к первому скачавшему отписаться о сохранности архивов на источнике раздачи.

Раздача рассчитана на месяц.

ПРИЯТНОГО ВСЕМ ПРОСМОТРА !!!




--------------------
Безоблачная старость – это миф,
Поскольку наша память – ширь морская,
И к ночи начинается прилив,
Со дна обломки прошлого таская.
Игорь Губерман

Скрыть подпись


vjub58
№2 Отправлено: 4.01.2017 - 15:56


Практикующий эсквайр

Группа: Аксакалы
Регистрация: 6.12.2005
Сообщений: 4406
Обитает:
Последний раз был:
вчера в 23:47




Спасибо, все ОК. pozdrav_buket.gif
Top
bornik
№3 Отправлено: 4.01.2017 - 16:02


Воспоминания - это богатства старости.

Группа: Модераторы
Регистрация: 18.08.2008
Сообщений: 800
Обитает:
Последний раз был:
вчера в 20:41




Цитата
( vjub58 @ 4.01.2017 - 15:56)
Спасибо, все ОК. pozdrav_buket.gif

И Вам, vjub58, спасибо за добрую весть. happy_fly.gif


--------------------
Безоблачная старость – это миф,
Поскольку наша память – ширь морская,
И к ночи начинается прилив,
Со дна обломки прошлого таская.
Игорь Губерман

Скрыть подпись
Top
Alevtina
№4 Отправлено: 4.01.2017 - 19:51


Время камни собирать...

Группа: Аксакалы
Регистрация: 12.02.2009
Сообщений: 5422
Обитает:
Последний раз был:
вчера в 20:16




bornik, Боря, а на остальные две серии автоматом в очередь можно? Что б мимо не пройти... zdarov1.gif


Это сообщение отредактировал Alevtina - 4.01.2017 - 21:02


--------------------

Прохожие, купите Доброту!
Лишь за улыбку! Разве ж это много!
Исполните заветную мечту…
И хоть одну из Заповедей Бога!
Снимите маски «гордых» и «крутых»
Купите, хоть немножечко, Терпенья.
И ощутите сердцем, хоть на миг,
Всю прелесть и восторг благодаренья!
Сегодня, АКЦИЯ на Совесть и Любовь!
Притормозите «хаммер» свой, иль «буммер»!
Купите! И волнуйте свою кровь!
От этого ещё никто не умер!


Скрыть подпись
Top
bornik
№5 Отправлено: 5.01.2017 - 04:03


Воспоминания - это богатства старости.

Группа: Модераторы
Регистрация: 18.08.2008
Сообщений: 800
Обитает:
Последний раз был:
вчера в 20:41




Цитата
( Alevtina @ 4.01.2017 - 19:51)
bornik, Боря, а на остальные две серии автоматом в очередь можно? Что б мимо не пройти... zdarov1.gif

Без проблем. Пожалуйста! wink2.gif


--------------------
Безоблачная старость – это миф,
Поскольку наша память – ширь морская,
И к ночи начинается прилив,
Со дна обломки прошлого таская.
Игорь Губерман

Скрыть подпись
Top
1 человек просматривает эту тему (1 гость)
« Предыдущая тема | Летопись времён и идей | Следующая тема »


 



[Script Execution time: 0,0219]   [23 queries used]   [GZIP enabled]