Заходят многие - остаются лучшие!
Здравствуйте Гость ( Вход | Регистрация ) Выслать повторно письмо для активации
Вход
Ваше имя Пароль Забыли пароль?
Запомнить Вас?
Войти скрытым?



 Правила раздела Новые сообщения раздела  


 

 Святая Иоанна / Святая Жанна / Saint Joan (1957), Джин Сиберг, Ричард Уидмарк / режиссер Отто Преминджер
surzhoks
  №1 Отправлено: 4.01.2017 - 21:08


Старожил

Группа: Аксакалы
Регистрация: 17.03.2008
Сообщений: 955
Обитает:
Последний раз был:
cегодня в 08:45




Святая Иоанна / Святая Жанна / Saint Joan


Страна: США, Великобритания
Студия: Wheel Productions Ltd.
Жанр: историческая драма
Год выпуска: 1957
Продолжительность: 01:50:43
Режиссер: Отто Преминджер / Otto Preminger
Композитор: Миша Шполянский
В ролях:
Джин Сиберг / Jean Seberg ... St. Joan of Arc
Ричард Уидмарк / Richard Widmark ... The Dauphin, Charles VII
Ричард Тодд / Richard Todd ... Dunois, Bastard of Orleans
Антон Вальбрук / Anton Walbrook ... Cauchon - Bishop of Beauvais
Джон Гилгуд / John Gielgud ... Earl of Warwick
Феликс Эйлмер / Felix Aylmer ... Inquisitor
Арчи Дункан / Archie Duncan ... Robert de Baudricourt
Гарри Эндрюс / Harry Andrews ... John de Stogumber
Марго Грэхам / Margot Grahame ... Duchesse de la Tremouille
Барри Джонс / Barry Jones ... De Courcelles
Френсис Де Вулф / Francis De Wolff ... La Tremouille
Финлэй Карри/ Finlay Currie ... Archbishop of Rheims
Дэвид Оксли / David Oxley ... 'Bluebeard' - Gilles de Rais
Виктор Маддерн / Victor Maddern ... English Soldier
Бернард Майлз / Bernard Miles ... Master Executioner

Описание: Спокойный сон Карла VII нарушен: он просыпается среди ночи, ему снятся кошмары. Он видит Жанну, стоящую у его ложа. "Я - сон, я снюсь тебе", - произносит она. Карл спрашивает, сильно ли она страдала на костре. Он говорит, что родители Жанны добились аннуляции процесса. "Смогут ли они аннулировать мое сожжение?" - спрашивает она с иронией. Думая о ее судьбе, король говорит: "Ты ведь всегда добивалась своего, не так ли?" Она, улыбаясь, кивает. Уже в 17 лет она убедила Бодрикура, владельца земель вокруг Вокулёра, дать ей доспехи, небольшой эскорт и рекомендательное письмо к дофину. Она рассказала Бодрикуру о голосах, приказывающих ей отправиться в Орлеан и снять с города осаду англичан. "Они идут из твоего воображения!" - заявил Бодрикур. "Конечно. Ведь именно так Господь передает нам послания", - ответила Жанна. В Шиноне некий солдат стал приставать к ней. Она предсказала ему скорую смерть - и в самом деле бедняга попал под копыта собственной лошади. При дворе она узнала Синюю Бороду - самого безобразного и неискреннего вельможу в королевстве, шутки ради заранее севшего на трон вместо дофина...
По одноименной пьесе Бернарда Шоу.

Доп. информация:
Огромное спасибо всем причастным к релизу:
рип - Магда,
перевод и озвучивание фильма - Игорь Клушин (хромолка),
работа со звуком и реавторинг исходного DVD- AlekceyR76

Архивы созданы RAR-архиватором с добавлением 3% на восстановление и снабжены sfv-проверочником.
Просьба к первому скачавшему отписаться о сохранности архивов на источнике раздачи.

Раздача рассчитана на 2 месяца. На просмотр линка и скачивание 5 дней!
В случае если вы встали в очередь, а затем отказываетесь от скачивания без объяснения причин, возможен отказ в последующих моих раздачах.




Полное имя :Saint Joan.1957.DVDRip.avi
Формат : AVI
Формат/Информация : Audio Video Interleave
Размер файла : 1,61 Гбайт
Продолжительность : 1 ч. 50 м.
Общий поток : 2080 Кбит/сек
Программа кодирования : VirtualDubMod 1.5.4.1 (build 2178/release)
Библиотека кодирования : VirtualDubMod build 2178/release

Видео
Идентификатор : 0
Формат : MPEG-4 Visual
Профиль формата : Advanced Simple@L5
Параметр BVOP формата : 2
Параметр QPel формата : Нет
Параметр GMC формата : Без точки перехода
Параметр матрицы формата : Default (H.263)
Идентификатор кодека : DX50
Идентификатор кодека/Подсказка : DivX 5
Продолжительность : 1 ч. 50 м.
Битрейт : 1682 Кбит/сек
Ширина : 720 пикселей
Высота : 400 пикселей
Соотношение сторон : 16:9
Частота кадров : 23,976 кадра/сек
Цветовое пространство : YUV
Субдискретизация насыщенности : 4:2:0
Битовая глубина : 8 бит
Тип развёртки : Прогрессивная
Метод сжатия : С потерями
Бит/(Пиксели*Кадры) : 0.244
Размер потока : 1,30 Гбайт (81%)
Библиотека кодирования : XviD 73

Аудио #1
Идентификатор : 1
Формат : AC-3
Формат/Информация : Audio Coding 3
Расширение режима : CM (complete main)
Параметр Endianness формата : Big
Идентификатор кодека : 2000
Продолжительность : 1 ч. 50 м.
Вид битрейта : Постоянный
Битрейт : 192 Кбит/сек
Каналы : 2 канала
Расположение каналов : Front: L R
Частота : 48,0 КГц
Битовая глубина : 16 бит
Метод сжатия : С потерями
Размер потока : 152 Мбайт (9%)
Выравнивание : Разделение по промежуткам
Продолжительность промежутка : 42 мс. (1,00 видеокадр)
Время предзагрузки промежутка : 500 мс.

Аудио #2
Идентификатор : 2
Формат : AC-3
Формат/Информация : Audio Coding 3
Расширение режима : CM (complete main)
Параметр Endianness формата : Big
Идентификатор кодека : 2000
Продолжительность : 1 ч. 50 м.
Вид битрейта : Постоянный
Битрейт : 192 Кбит/сек
Каналы : 2 канала
Расположение каналов : Front: L R
Частота : 48,0 КГц
Битовая глубина : 16 бит
Метод сжатия : С потерями
Размер потока : 152 Мбайт (9%)
Выравнивание : Разделение по промежуткам
Продолжительность промежутка : 42 мс. (1,00 видеокадр)
Время предзагрузки промежутка : 500 мс.




--------------------
Искусство откладывать деньги сводится к умению сказать “нет” потребительскому обществу.

Скрыть подпись


vjub58
№2 Отправлено: 4.01.2017 - 22:31


Практикующий эсквайр

Группа: Аксакалы
Регистрация: 6.12.2005
Сообщений: 4533
Обитает:
Последний раз был:
cегодня в 00:13




Спасибо, все ОК. pozdrav_buket.gif
Top
bor in
№3 Отправлено: 4.01.2017 - 22:34


Посетитель

Группа: Потребители
Регистрация: 26.01.2008
Сообщений: 179
Обитает:
На форуме с:
cегодня в 10:29




С архивом всё в порядке.Спасибо за фильм!
Top
1 человек просматривает эту тему (1 гость)
« Предыдущая тема | Зарубежные фильмы | Следующая тема »


 



[Script Execution time: 0,0288]   [23 queries used]   [GZIP enabled]