Заходят многие - остаются лучшие!
Здравствуйте Гость ( Вход | Регистрация ) Выслать повторно письмо для активации
Вход
Ваше имя Пароль Забыли пароль?
Запомнить Вас?
Войти скрытым?



Новые сообщения раздела  

 

 Свято-Данилов мужской монастырь (2014), RTG Production Studios
bornik
  №1 Отправлено: 8.04.2018 - 16:19


Воспоминания - это богатства старости.

Группа: Модераторы
Регистрация: 18.08.2008
Сообщений: 1036
Обитает:
Последний раз был:
cегодня в 20:55




Свято-Данилов мужской монастырь (2014)



«Свято-Данилов мужской монастырь» - это один из самых старинных московских монастырей. Он был основан в ХIII столетии святым князем Даниилом Московским.
Первый храм обители был возведен в честь преподобного основателя Даниила Столпника. Сегодня православное сооружение имеет статус ставропигии. Настоятелем является московский епископ - Патриарх Московский и вся Руси. А повседневной жизнью общины занимается управляющий наместник - архимандрит.

Оригинальное название: Свято-Данилов мужской монастырь
Год выпуска: 2014
Жанр: Документальный, познавательный
Выпущено: Россия, , RTG Production Studios
Продолжительность: 00:37:52
Субтитры: Русские (мои)

Режиссёр: Юрий Давыдов
Сценарист: Вадим Сокуренко

Ведущий: Александр Уваров

Описание: На берегу Москвы-реки более 8 веков назад возникло поселение - будущий стольный град Москва. Поселение досталось в наследство младшему сыну великого князя Александра Невского - Даниилу. Ранее не имевшее своего князя, оно было одним из самых слабых и незначительных на Руси. Для укрепления московского княжества и единения людей князь Даниил основал мужской монастырь, ставший первым в российской столице...









General
Complete name : C:\DVD documental fimls\RTG\Свято-Данилов мужской монастырь\Свято-Данилов мужской монастырь (2014).avi
Format : AVI
Format/Info : Audio Video Interleave
File size : 598 MiB
Duration : 37mn 51s
Overall bit rate : 2 207 Kbps
Writing library : VirtualDub build 35491/release

Video
ID : 0
Format : MPEG-4 Visual
Format profile : Advanced Simple@L5
Format settings, BVOP : 2
Format settings, QPel : No
Format settings, GMC : No warppoints
Format settings, Matrix : Default (H.263)
Muxing mode : Packed bitstream
Codec ID : XVID
Codec ID/Hint : XviD
Duration : 37mn 51s
Bit rate : 2 002 Kbps
Width : 720 pixels
Height : 400 pixels
Display aspect ratio : 16:9
Frame rate : 25.000 fps
Color space : YUV
Chroma subsampling : 4:2:0
Bit depth : 8 bits
Scan type : Progressive
Compression mode : Lossy
Bits/(Pixel*Frame) : 0.278
Stream size : 542 MiB (91%)
Writing library : XviD 65

Audio
ID : 1
Format : MPEG Audio
Format version : Version 1
Format profile : Layer 3
Mode : Joint stereo
Mode extension : MS Stereo
Codec ID : 55
Codec ID/Hint : MP3
Duration : 37mn 51s
Bit rate mode : Constant
Bit rate : 192 Kbps
Channel(s) : 2 channels
Sampling rate : 48.0 KHz
Compression mode : Lossy
Stream size : 52.0 MiB (9%)
Alignment : Aligned on interleaves
Interleave, duration : 24 ms (0.60 video frame)
Interleave, preload duration : 504 ms
Writing library : LAME3.98.2


=================================

Исходником послужил релиз HDTV, найденный на просторах инета!

Архивы созданы RAR-архиватором с добавлением 3% на восстановление и снабжены sfv-проверочником.
Просьба к первому скачавшему отписаться о сохранности архивов на источнике раздачи.


ПРИЯТНОГО ВСЕМ ПРОСМОТРА !!!




--------------------
Безоблачная старость – это миф,
Поскольку наша память – ширь морская,
И к ночи начинается прилив,
Со дна обломки прошлого таская.
Игорь Губерман

Скрыть подпись


nota
№2 Отправлено: 8.04.2018 - 18:14


Посетитель

Группа: Потребители
Регистрация: 31.10.2007
Сообщений: 143
Обитает:
Последний раз был:
6.09.2018 - 18:59




Спасибо ! Христос воскресе ! Архивы в порядке !
Top
bornik
№3 Отправлено: 8.04.2018 - 18:47


Воспоминания - это богатства старости.

Группа: Модераторы
Регистрация: 18.08.2008
Сообщений: 1036
Обитает:
Последний раз был:
cегодня в 20:55




Цитата
nota @ 8.04.2018 - 18:14
Спасибо ! Христос воскресе ! Архивы в порядке !

И Вам, nota, спасибо за добрую весть. happy_fly.gif
Воистину воскрес!


--------------------
Безоблачная старость – это миф,
Поскольку наша память – ширь морская,
И к ночи начинается прилив,
Со дна обломки прошлого таская.
Игорь Губерман

Скрыть подпись
Top
1 человек просматривает эту тему (1 гость)
« Предыдущая тема | Мир вокруг нас | Следующая тема »


 



[Script Execution time: 0,0563]   [22 queries used]   [GZIP enabled]