Заходят многие - остаются лучшие!
Здравствуйте Гость ( Вход | Регистрация ) Выслать повторно письмо для активации
Вход
Ваше имя Пароль Забыли пароль?
Запомнить Вас?
Войти скрытым?



Новые сообщения раздела  

 

 Сборник редких мультфильмов киностудии Ленфильм (1928-1941)
SanSan48
  №1 Отправлено: 19.07.2018 - 16:57


"Спартак" - ЧЕМПИОН!!!

Группа: Пользователи
Регистрация: 28.12.2009
Сообщений: 1913
Обитает:
Последний раз был:
cегодня в 15:37




Сборник редких мультфильмов киностудии «Ленфильм» (1928-1941)



Жанр: мультфильмы, детский, семейный
Страна: СССР
Студия: Ленфильм
Общая продолжительность: 01:07:49
Год выпуска: 1928-1941

Режиссёры: Михаил Цехановский, Мстислав Пащенко, Александр Синицын, Виталий Сюмкин, Павел Шмидт

Описание: Историк кино Петр Багров в тематическом цикле "Неизвестный "Ленфильм" рассказывает о созданных на этой киностудии в период с 1928 по 1941 год мультипликационных фильмах, о новаторах кино - режиссерах-мультипликаторах Михаиле Цехановском и Мстиславе Пащенко. К показу подготовлено семь мультфильмов, впервые представленных зрителям.

Дополнительная информация: Релиз:

Автор рипа: pmv

Большое спасибо за:
- за предоставленную видеозапись Cheef mate

* Информация по мультфильмам взята из "Аннотированного каталога Советских художественных фильмов за 1918-1935г.г. (том 1) и за 1930-1957г.г. (том 2)"

* Отдельным файлом в папку добавлено видео, в котором историк кино Пётр Багров предваряет показ мультфильмов рассказом об истории их создания и об авторах - режиссёрах-мультипликаторах этих фильмов.

1. "Почта". Мультфильм (1928-1929, реставрация ТК «Культура» в 2018 году)
По мотивам одноименного стихотворения Самуила Маршака. К сожалению, озвученная версия фильма утеряна или, точнее говоря, пока не найдена.

814. ПОЧТА. Графич., 2ч., 550ж, Совкино (Л.), 1928—1929 г.г., ВЭ неизв.
Озвучен в 1930 г., 2 ч., 842 м.
Авт. сцен. С.Маршак; реж. и худ. М.Цехановский; опер. К.Кириллов; худ. И.Дружинин;
реж. звук. вар. Н.Тимофеев; композ. В.Дешевов; звукоопер. М.Мухачев.


Параметры файла:
Название: ПОЧТА (1928-1929).avi
Качество видео: SATRip
Формат видео: AVI
Размер: 233.34 Mb ( 244 671 488 bytes )
Продолжительность: 00:15:18.359 (22959 frames)
Видео: 720x512 (1.41:1), 25 fps, XviD build 73 ~1993 kbps avg, 0.22 bit/pixel
Аудио: 48 kHz, MPEG Layer 3, 2 ch, ~128.00 kbps avg



General
Complete name : D:\torrents\НЕИЗВЕСТНЫЙ ЛЕНФИЛЬМ\ПОЧТА (1928-1929).avi
Format : AVI
Format/Info : Audio Video Interleave
File size : 233 MiB
Duration : 15 min 18 s
Overall bit rate : 2 131 kb/s
Writing library : VirtualDub build 35491/release

Video
ID : 0
Format : MPEG-4 Visual
Format profile : Advanced Simple@L5
Format settings, BVOP : 2
Format settings, QPel : No
Format settings, GMC : No warppoints
Format settings, Matrix : Default (H.263)
Codec ID : XVID
Codec ID/Hint : XviD
Duration : 15 min 18 s
Bit rate : 1 994 kb/s
Width : 720 pixels
Height : 512 pixels
Display aspect ratio : 1.406
Frame rate : 25.000 FPS
Color space : YUV
Chroma subsampling : 4:2:0
Bit depth : 8 bits
Scan type : Progressive
Compression mode : Lossy
Bits/(Pixel*Frame) : 0.216
Stream size : 218 MiB (94%)
Writing library : XviD 73

Audio
ID : 1
Format : MPEG Audio
Format version : Version 1
Format profile : Layer 3
Mode : Joint stereo
Mode extension : MS Stereo
Codec ID : 55
Codec ID/Hint : MP3
Duration : 15 min 18 s
Bit rate mode : Constant
Bit rate : 128 kb/s
Channel(s) : 2 channels
Sampling rate : 48.0 kHz
Compression mode : Lossy
Stream size : 14.0 MiB (6%)
Alignment : Split accross interleaves
Interleave, duration : 40 ms (1.00 video frame)
Interleave, preload duration : 500 ms
Writing library : LAME3.99r
Encoding settings : -m j -V 4 -q 3 -lowpass 17 -b 128




2. "Теремок". Мультфильм (1937 год)
По мотивам русской народной сказки.

1451. ТЕРЕМОК. Цветные рисунки. Графич., цв , 1 ч., 200 м, Ленфильм, 1937 г., ВЭ 1937 г.
Авт. сцен, и реж. А.Синицын, В.Сюмкин; опер. В.Вильчевская; композ. И.Дунаевский;
авт. текста песен. В.Волженин.
Ассист. реж. П.Порошков, Е.Казанцева, Э.Гайлан; худ. фонов В. Янчевский.
Трехцветная печать по способу Гос. оптического института выполнена лабораторией сектора цветных фильмов.
По мотивам русской народной сказки.
В заброшенном теремке, что стоит в глухом, дремучем лесу на цветущей полянке, поселяются Лягушка, Белка и Заяц. Как-то раз возле домика оказывается голодный Волк. Лесной разбойник гонится за Зайцем, вот-вот схватит. На помощь косому спешат друзья. Их дружный натиск
обращает Волка в бегство.


Параметры файла:
Название: ТЕРЕМОК (1937).avi
Качество видео: SATRip
Формат видео: AVI
Размер: 101.01 Mb ( 105 919 868 bytes )
Продолжительность: 00:06:37.880 (9947 frames)
Видео: 720x512 (1.41:1), 25 fps, XviD build 73 ~1991 kbps avg, 0.22 bit/pixel
Аудио: 48 kHz, MPEG Layer 3, 2 ch, ~128.00 kbps avg



General
Complete name : D:\torrents\НЕИЗВЕСТНЫЙ ЛЕНФИЛЬМ\ТЕРЕМОК (1937).avi
Format : AVI
Format/Info : Audio Video Interleave
File size : 101 MiB
Duration : 6 min 37 s
Overall bit rate : 2 130 kb/s
Writing library : VirtualDub build 35491/release

Video
ID : 0
Format : MPEG-4 Visual
Format profile : Advanced Simple@L5
Format settings, BVOP : 2
Format settings, QPel : No
Format settings, GMC : No warppoints
Format settings, Matrix : Default (H.263)
Codec ID : XVID
Codec ID/Hint : XviD
Duration : 6 min 37 s
Bit rate : 1 992 kb/s
Width : 720 pixels
Height : 512 pixels
Display aspect ratio : 1.406
Frame rate : 25.000 FPS
Color space : YUV
Chroma subsampling : 4:2:0
Bit depth : 8 bits
Scan type : Progressive
Compression mode : Lossy
Bits/(Pixel*Frame) : 0.216
Stream size : 94.5 MiB (94%)
Writing library : XviD 73

Audio
ID : 1
Format : MPEG Audio
Format version : Version 1
Format profile : Layer 3
Mode : Joint stereo
Mode extension : MS Stereo
Codec ID : 55
Codec ID/Hint : MP3
Duration : 6 min 37 s
Bit rate mode : Constant
Bit rate : 128 kb/s
Channel(s) : 2 channels
Sampling rate : 48.0 kHz
Compression mode : Lossy
Stream size : 6.07 MiB (6%)
Alignment : Split accross interleaves
Interleave, duration : 40 ms (1.00 video frame)
Interleave, preload duration : 500 ms
Writing library : LAME3.99r
Encoding settings : -m j -V 4 -q 3 -lowpass 17 -b 128




3. "Первая охота". Мультфильм (1937 год)
По рассказу Виталия Бианки. О неудавшейся охоте щенка за бабочкой, выпью и удодом.

1444. ПЕРВАЯ ОХОТА. Графич., цв., 1 ч., 229 м, Ленфильм, 1937 г., ВЭ 1937 г.
Авт. сцен. Виталий Бианки; реж. и худ. Павел Шмидт; композ. В.Витлин; звукоопер. В.Урбенин.
О неудавшейся охоте щенка за бабочкой, выпью и удодом.

Фильм не сохранился.

Ещё одно подтверждение старой бессмертной истины: «Не верь написанному».

Параметры файла:
Название: ПЕРВАЯ ОХОТА (1937).avi
Качество видео: SATRip
Формат видео: AVI
Размер: 109.79 Mb ( 115 126 046 bytes )
Продолжительность: 00:07:13.160 (10829 frames)
Видео: 720x512 (1.41:1), 25 fps, XviD build 73 ~1998 kbps avg, 0.22 bit/pixel
Аудио: 48 kHz, MPEG Layer 3, 2 ch, ~128.00 kbps avg



General
Complete name : D:\ torrents\НЕИЗВЕСТНЫЙ ЛЕНФИЛЬМ \ПЕРВАЯ ОХОТА (1937).avi
Format : AVI
Format/Info : Audio Video Interleave
File size : 110 MiB
Duration : 7 min 13 s
Overall bit rate : 2 126 kb/s
Writing application : VirtualDubMod 1.5.10.3 | www.virtualdub-fr.org || (build 2550/release)
Writing library : VirtualDub build 35491/release

Video
ID : 0
Format : MPEG-4 Visual
Format profile : Advanced Simple@L5
Format settings, BVOP : 2
Format settings, QPel : No
Format settings, GMC : No warppoints
Format settings, Matrix : Default (H.263)
Codec ID : XVID
Codec ID/Hint : XviD
Duration : 7 min 13 s
Bit rate : 1 988 kb/s
Width : 720 pixels
Height : 512 pixels
Display aspect ratio : 1.406
Frame rate : 25.000 FPS
Color space : YUV
Chroma subsampling : 4:2:0
Bit depth : 8 bits
Scan type : Progressive
Compression mode : Lossy
Bits/(Pixel*Frame) : 0.216
Stream size : 103 MiB (94%)
Writing library : XviD 73

Audio
ID : 1
Format : MPEG Audio
Format version : Version 1
Format profile : Layer 3
Mode : Joint stereo
Mode extension : MS Stereo
Codec ID : 55
Codec ID/Hint : MP3
Duration : 7 min 12 s
Bit rate mode : Constant
Bit rate : 128 kb/s
Channel(s) : 2 channels
Sampling rate : 48.0 kHz
Compression mode : Lossy
Delay relative to video : 300 ms
Stream size : 6.60 MiB (6%)
Alignment : Split accross interleaves
Interleave, duration : 40 ms (1.00 video frame)
Interleave, preload duration : 500 ms




4. "Джябжа". Мультфильм (1938 год)
По мотивам нанайской сказки. Слуги злой старухи Джябжи – Девочка, Собачка и Лягушонок, работают с утра до ночи, но это не избавляет их от побоев. А когда Медведь съедает обед Джябжи им не остается ничего другого, как сбежать от разьяренной старухи.

1502. ДЖЯБЖА. Графич., цв., 1 ч., 339 м, Ленфильм, 1938 г., ВЭ I.1939 г.
Авт. сцен, и реж. М.Пащенко; худ. Н.Верещагина, В.Соколов (фоны);
композ. Н.Стрельников; звукоопер. П.Краморов; худ.-мультипл. Юрий (Георгий) Гожев, Елизавета Казанцева, М.Радынская, Вера Цехановская.
В основу фильма положена нанайская сказка.
В домике среди леса жила злая старуха Джябжа. Ее слуги — Девочка, Собачка и Лягушонок — работали с утра до ночи, но это не избавляло их от побоев старухи. Однажды забравшийся в избушку Медведь съел весь обед, приготовленный для Джябжы. Разъяренная старуха с толстой палкой в руках погналась за своими слугами. Но Девочка, Собачка и Лягушонок быстро взобрались на высокое-высокое дерево и оттуда прыгнули на Луну. Полезшая было за ними Джябжа сорвалась и повисла на суку.


IMDb = - (-) - http://www.imdb.com/title/tt2381165/

* Цветной вариант был восстановлен в 2013 году.

Параметры файла:
Название: ДЖЯБЖА (1938).avi
Качество видео: SATRip
Формат видео: AVI
Размер: 179.12 Mb ( 187 816 440 bytes )
Продолжительность: 00:11:42.960 (17574 frames)
Видео: 720x512 (1.41:1), 25 fps, XviD build 73 ~1999 kbps avg, 0.22 bit/pixel
Аудио: 48 kHz, MPEG Layer 3, 2 ch, ~128.00 kbps avg



General
Complete name : D:\torrents\НЕИЗВЕСТНЫЙ ЛЕНФИЛЬМ\ДЖЯБЖА (1938).avi
Format : AVI
Format/Info : Audio Video Interleave
File size : 179 MiB
Duration : 11 min 42 s
Overall bit rate : 2 137 kb/s
Writing library : VirtualDub build 35491/release

Video
ID : 0
Format : MPEG-4 Visual
Format profile : Advanced Simple@L5
Format settings, BVOP : 2
Format settings, QPel : No
Format settings, GMC : No warppoints
Format settings, Matrix : Default (H.263)
Codec ID : XVID
Codec ID/Hint : XviD
Duration : 11 min 42 s
Bit rate : 2 000 kb/s
Width : 720 pixels
Height : 512 pixels
Display aspect ratio : 1.406
Frame rate : 25.000 FPS
Color space : YUV
Chroma subsampling : 4:2:0
Bit depth : 8 bits
Scan type : Progressive
Compression mode : Lossy
Bits/(Pixel*Frame) : 0.217
Stream size : 168 MiB (94%)
Writing library : XviD 73

Audio
ID : 1
Format : MPEG Audio
Format version : Version 1
Format profile : Layer 3
Mode : Joint stereo
Mode extension : MS Stereo
Codec ID : 55
Codec ID/Hint : MP3
Duration : 11 min 42 s
Bit rate mode : Constant
Bit rate : 128 kb/s
Channel(s) : 2 channels
Sampling rate : 48.0 kHz
Compression mode : Lossy
Stream size : 10.7 MiB (6%)
Alignment : Split accross interleaves
Interleave, duration : 40 ms (1.00 video frame)
Interleave, preload duration : 500 ms
Writing library : LAME3.99r
Encoding settings : -m j -V 4 -q 3 -lowpass 17 -b 128




5. "Цирк". Мультфильм (1940 год)
На площади маленького городка раскинул свой шатер бродячий цирк. На его арене выступают мастера циркового искусства: Медведь-атлет, Пудель-жонглер, Кошка-акробатка.

1643. ЦИРК. Графич., цв., 1 ч., 241 м, Ленфильм, 1940 г., ВЭ V.1940 г.
Авт. сцен, и реж. А.Синицин, В.Сюмкин; худ. эскизов фонов Е.Словцова; опер. В.Шумякин;
композ. И.Дунаевский; звукоопер. К.Гардон; стихи В.Волженина.
Худ. фонов В.Соколов, В. Янчевский, 3.Бокова, ассист. реж. Е.Казанцева, П.Порошков, М.Радынская, К.Дупал; техн. ассист. Н.Коробова; монтаж. В.Назаренко, худ.-мультипл. Н.Никоненок, В.Головкин.
На одной из площадей маленького городка раскинул свой шатер бродячий цирк. На его арене выступают прославленные мастера циркового искусства: Медведь-атлет, Пудель-жонглер, Кошка-акробатка. А за кулисами скромно трудится в роли уборщика дворовый Пес. Однажды глупый
Осел, участник одного из номеров, заупрямился во время представления. Пришлось вызвать на арену дворового Пса, хорошо изучившего ослиный нрав. Пес не только справился с упрямцем, но и продемонстрировал перед восхищенными зрителями высокое мастерство циркового артиста.


Параметры файла:
Название: ЦИРК (1940).avi
Качество видео: SATRip
Формат видео: AVI
Размер: 128.99 Mb ( 135 259 876 bytes )
Продолжительность: 00:08:29.839 (12746 frames)
Видео: 720x528 (1.36:1), 25 fps, XviD build 73 ~1984 kbps avg, 0.21 bit/pixel
Аудио: 48 kHz, MPEG Layer 3, 2 ch, ~128.00 kbps avg



General
Complete name : D:\torrents\НЕИЗВЕСТНЫЙ ЛЕНФИЛЬМ\ЦИРК (1940).avi
Format : AVI
Format/Info : Audio Video Interleave
File size : 129 MiB
Duration : 8 min 29 s
Overall bit rate : 2 122 kb/s
Writing library : VirtualDub build 35491/release

Video
ID : 0
Format : MPEG-4 Visual
Format profile : Advanced Simple@L5
Format settings, BVOP : 2
Format settings, QPel : No
Format settings, GMC : No warppoints
Format settings, Matrix : Default (H.263)
Codec ID : XVID
Codec ID/Hint : XviD
Duration : 8 min 29 s
Bit rate : 1 985 kb/s
Width : 720 pixels
Height : 528 pixels
Display aspect ratio : 4:3
Frame rate : 25.000 FPS
Color space : YUV
Chroma subsampling : 4:2:0
Bit depth : 8 bits
Scan type : Progressive
Compression mode : Lossy
Bits/(Pixel*Frame) : 0.209
Stream size : 121 MiB (94%)
Writing library : XviD 73

Audio
ID : 1
Format : MPEG Audio
Format version : Version 1
Format profile : Layer 3
Mode : Joint stereo
Mode extension : MS Stereo
Codec ID : 55
Codec ID/Hint : MP3
Duration : 8 min 29 s
Bit rate mode : Constant
Bit rate : 128 kb/s
Channel(s) : 2 channels
Sampling rate : 48.0 kHz
Compression mode : Lossy
Stream size : 7.78 MiB (6%)
Alignment : Split accross interleaves
Interleave, duration : 40 ms (1.00 video frame)
Interleave, preload duration : 500 ms
Writing library : LAME3.99r
Encoding settings : -m j -V 4 -q 3 -lowpass 17 -b 128




6. "Сказка о глупом мышонке". Мультфильм (1940 год)
По мотивам стихотворения Самуила Маршака.
Все звери уснули, лишь маленького Мышонка никто не мог убаюкать, пока не пришла Кошка.

1642. СКАЗКА О ГЛУПОМ МЫШОНКЕ. Графич , цв., 1 ч , 414 м, Ленфильм, 1940 г., ВЭ 1940 г.
Авт. сцен, и реж. М.Цехановский; худ. Л.Чупятов; опер. В.Шумякин; композ Д.Шостакович, звукоопер. А.Беккер; ассист. реж. К.Дупал
Солнце село. Все звери уснули. Лишь маленький Мышонок не хочет спать. Мышонку не нравится колыбельная песня, которую поет ему мама Мышь. Взволнованная мамаша обращается за помощью к Лягушке, Свинье, Утке, Щуке, Лошадке, но и их песенки не могут убаюкать глупого Мышонка.
Отчаявшаяся мама Мышь приглашает в няньки Кошку. Быть беде, но храбрый сторож Пес успевает спасти Мышонка, заснувшего под «ласковое» мурлыканье Кошки.


Параметры файла:
Название: СКАЗКА О ГЛУПОМ МЫШОНКЕ (1940).avi
Качество видео: SATRip
Формат видео: AVI
Размер: 221.50 Mb ( 232 262 586 bytes )
Продолжительность: 00:14:29.559 (21739 frames)
Видео: 720x496 (1.45:1), 25 fps, XviD build 73 ~1988 kbps avg, 0.22 bit/pixel
Аудио: 48 kHz, MPEG Layer 3, 2 ch, ~128.00 kbps avg



General
Complete name : D:\torrents\НЕИЗВЕСТНЫЙ ЛЕНФИЛЬМ\СКАЗКА О ГЛУПОМ МЫШОНКЕ (1940).avi
Format : AVI
Format/Info : Audio Video Interleave
File size : 222 MiB
Duration : 14 min 29 s
Overall bit rate : 2 137 kb/s
Writing library : VirtualDub build 35491/release

Video
ID : 0
Format : MPEG-4 Visual
Format profile : Advanced Simple@L5
Format settings, BVOP : 2
Format settings, QPel : No
Format settings, GMC : No warppoints
Format settings, Matrix : Default (H.263)
Codec ID : XVID
Codec ID/Hint : XviD
Duration : 14 min 29 s
Bit rate : 1 999 kb/s
Width : 720 pixels
Height : 496 pixels
Display aspect ratio : 3:2
Frame rate : 25.000 FPS
Color space : YUV
Chroma subsampling : 4:2:0
Bit depth : 8 bits
Scan type : Progressive
Compression mode : Lossy
Bits/(Pixel*Frame) : 0.224
Stream size : 207 MiB (94%)
Writing library : XviD 73

Audio
ID : 1
Format : MPEG Audio
Format version : Version 1
Format profile : Layer 3
Mode : Joint stereo
Mode extension : MS Stereo
Codec ID : 55
Codec ID/Hint : MP3
Duration : 14 min 29 s
Bit rate mode : Constant
Bit rate : 128 kb/s
Channel(s) : 2 channels
Sampling rate : 48.0 kHz
Compression mode : Lossy
Stream size : 13.3 MiB (6%)
Alignment : Split accross interleaves
Interleave, duration : 40 ms (1.00 video frame)
Interleave, preload duration : 500 ms
Writing library : LAME3.99r
Encoding settings : -m j -V 4 -q 3 -lowpass 17 -b 128




7. "Как Вася Теркин призываться шёл". Мультфильм (1941 год)
По дороге в военкомат Василий Теркин замечает трех диверсантов, сброшенных с фашистского самолета. Применив военную хитрость, Вася расправляется с фашистами и продолжает свой путь.

1711. КАК ВАСЯ ТЕРКИН-ПРИЗЫВАТЬСЯ ШЕЛ. Графич., 1 ч., 220 м, Ленфильм, 1941 г., ВЭ 1941 г.
Авт. сцен. А.Гитович, В.Лившиц, А.Чивелихин; реж В.Сюмкин, П.Шмидт; худ. В.Лебедев;
композ. В.Пушков.


Качество видео: SATRip
Формат видео: AVI
Видео: 720x544 (1.32:1), 25 fps, XviD build 73 ~1968 kbps avg, 0.20 bit/pixel
Аудио: 48 kHz, MPEG Layer 3, 2 ch, ~128.00 kbps avg

Параметры файла:
Название: КАК ВАСЯ ТЕРКИН ПРИЗЫВАТЬСЯ ШЕЛ (1941).avi
Качество видео: SATRip
Формат видео: AVI
Размер: 59.53 Mb ( 62 419 588 bytes )
Продолжительность: 00:03:57.039 (5926 frames)
Видео: 720x544 (1.32:1), 25 fps, XviD build 73 ~1968 kbps avg, 0.20 bit/pixel
Аудио: 48 kHz, MPEG Layer 3, 2 ch, ~128.00 kbps avg



General
Complete name : D:\torrents\НЕИЗВЕСТНЫЙ ЛЕНФИЛЬМ\КАК ВАСЯ ТЕРКИН ПРИЗЫВАТЬСЯ ШЕЛ (1941).avi
Format : AVI
Format/Info : Audio Video Interleave
File size : 59.5 MiB
Duration : 3 min 57 s
Overall bit rate : 2 107 kb/s
Writing library : VirtualDub build 35491/release

Video
ID : 0
Format : MPEG-4 Visual
Format profile : Advanced Simple@L5
Format settings, BVOP : 2
Format settings, QPel : No
Format settings, GMC : No warppoints
Format settings, Matrix : Default (H.263)
Codec ID : XVID
Codec ID/Hint : XviD
Duration : 3 min 57 s
Bit rate : 1 969 kb/s
Width : 720 pixels
Height : 544 pixels
Display aspect ratio : 4:3
Frame rate : 25.000 FPS
Color space : YUV
Chroma subsampling : 4:2:0
Bit depth : 8 bits
Scan type : Progressive
Compression mode : Lossy
Bits/(Pixel*Frame) : 0.201
Stream size : 55.6 MiB (93%)
Writing library : XviD 73

Audio
ID : 1
Format : MPEG Audio
Format version : Version 1
Format profile : Layer 3
Mode : Joint stereo
Mode extension : MS Stereo
Codec ID : 55
Codec ID/Hint : MP3
Duration : 3 min 57 s
Bit rate mode : Constant
Bit rate : 128 kb/s
Channel(s) : 2 channels
Sampling rate : 48.0 kHz
Compression mode : Lossy
Stream size : 3.62 MiB (6%)
Alignment : Split accross interleaves
Interleave, duration : 40 ms (1.00 video frame)
Interleave, preload duration : 500 ms
Writing library : LAME3.99r
Encoding settings : -m j -V 4 -q 3 -lowpass 17 -b 128





МОИ РАЗДАЧИ НА ФЕНИКСе: ЗДЕСЬ
Перезаливает для архива: медикус




--------------------
"Спартак" - ЧЕМПИОН!!!

Скрыть подпись
apb1
№2 Отправлено: 19.07.2018 - 17:50


наша синема

Группа: Аксакалы
Регистрация: 6.03.2008
Сообщений: 2890
Обитает:
Последний раз был:
cегодня в 03:16




SanSan48, скачалось-собралось без проблем. Спасибо!
Top
SanSan48
№3 Отправлено: 19.07.2018 - 17:59


"Спартак" - ЧЕМПИОН!!!

Группа: Пользователи
Регистрация: 28.12.2009
Сообщений: 1913
Обитает:
Последний раз был:
cегодня в 15:37




Цитата
( apb1 @ 19.07.2018 - 17:50)
SanSan48, скачалось-собралось без проблем. Спасибо!

apb1, Благодарю за сообщение!

Приятного всем просмотра!


--------------------
"Спартак" - ЧЕМПИОН!!!

Скрыть подпись
Top
Chiefmate
№4 Отправлено: 19.07.2018 - 20:47


Новичок

Группа: Аксакалы
Регистрация: 24.09.2008
Сообщений: 97
Обитает:
Последний раз был:
14.08.2018 - 10:56




Сан Саныч, а где мое "другое участие")))???
Top
медикус
№5 Отправлено: 19.07.2018 - 23:17


Живёт здесь

Группа: Модераторы
Регистрация: 22.07.2008
Сообщений: 9747
Обитает:
Последний раз был:
cегодня в 14:23




Chiefmate, а "другое участие" ставит только модератор раздела, т.е. в данном случае я DD.gif


--------------------
"Тихо шифером шурша,
Крыша едет не спеша..."
Не помню, кто написал, но дома с этим согласны yes.gif

ПРОЕКТ: В музей - без поводка

Скрыть подпись
Top
Chiefmate
№6 Отправлено: 20.07.2018 - 18:44


Новичок

Группа: Аксакалы
Регистрация: 24.09.2008
Сообщений: 97
Обитает:
Последний раз был:
14.08.2018 - 10:56




медикус, не знал. век живи - век учись)))
Top
медикус
№7 Отправлено: 20.07.2018 - 19:19


Живёт здесь

Группа: Модераторы
Регистрация: 22.07.2008
Сообщений: 9747
Обитает:
Последний раз был:
cегодня в 14:23




Chiefmate, yes.gif


--------------------
"Тихо шифером шурша,
Крыша едет не спеша..."
Не помню, кто написал, но дома с этим согласны yes.gif

ПРОЕКТ: В музей - без поводка

Скрыть подпись
Top
Abakan2000video
№8 Отправлено: 21.07.2018 - 17:07


Гость

Группа: Новички
Регистрация: 21.07.2018
Сообщений: 2
Обитает:
Последний раз был:
29.07.2018 - 13:25




Спасибо! Архивы впорядке
Top
Сергей66
№9 Отправлено: 1.08.2018 - 08:51


Гость

Группа: Новички
Регистрация: 1.08.2018
Сообщений: 2
Обитает:
Последний раз был:
1.08.2018 - 10:35




Спасибо большое за раздачу. Давно "охочусь"за этими мультфильмами. Записал передачу с канала Культура,но не повезло со звуком(через каждые 9 секунд,слышен щелчок в процессе захвата с тв-тюнера).
Top
1 человек просматривает эту тему (1 гость)
« Предыдущая тема | Мультпарад | Следующая тема »


 



[Script Execution time: 0,0474]   [24 queries used]   [GZIP enabled]