Заходят многие - остаются лучшие!
Здравствуйте Гость ( Вход | Регистрация ) Выслать повторно письмо для активации
Вход
Ваше имя Пароль Забыли пароль?
Запомнить Вас?
Войти скрытым?



 Правила раздела Новые сообщения раздела  


 

 Мой двадцатый век / Az én XX. századom / My Twentieth Century (1989), Арт-хаус,драма;Реж.-И.Энеди;Роли-Д.Сегда,О.ЯНКОВСКИЙ
SanSan48
  №1 Отправлено: 20.01.2019 - 08:53


"Спартак" - ЧЕМПИОН!!!

Группа: Пользователи
Регистрация: 28.12.2009
Сообщений: 2050
Обитает:
Последний раз был:
cегодня в 15:52




Мой двадцатый век / Az én XX. századom / My Twentieth Century (1989)



Предыдущая раздача
2.10.2009 (DVDrip)

Жанр: Арт-хаус, драма
Выпущено: Венгрия, Германия (ФРГ), Куба, Budapest Stúdió Vállalat, Freihändler Filmproduktion GmbH, Helikon Film, Humburger Filmbüro, Instituto Cubano del Arte e Industrias Cinematográficos (ICAIC), Magyar Filmgyártó Vállalat
Год выпуска: 1989
Премьера (мир): 15 сентября 1989 (Канада, Международный кинофестиваль в Торонто), 13 января 1990 (Япония), 10 февраля 1990 (Франция), 17 марта 1990 (США, Фестиваль режиссеров-дебютантов в Нью-Йорке)
Сценарист: Ильдико Энеди / Ildikó Enyedi
Оператор: Тибор Мате / Tibor Máthé
Композитор: Ласло Видовски / László Vidovszky
Художники: Золтан Лабаш / Zoltán Lábas, Агнеш Дьярмати / Ágnes Gyarmathy, Ливия Балог / Livia Balogh, Золтан Харди / Zoltán Hardy
Монтажёр: Мария Риго / Mária Rigó

Режиссёр: Ильдико Энеди / Ildikó Enyedi

В ролях:
Дорота Сегда / Dorota Segda ... Dóra / Lili / Anya
Олег Янковский ... Z
Паулюс Манкер / Paulus Manker ... Weininger Ottó
Петер Андораи / Péter Andorai ... Thomas Edison
Габор Мате / Gábor Máté ... K
Дьюла Кери / Gyula Kéry ... ékszerész
Андрей Шварц / Andrej Schwartz ... Segéd
Шандор Тери / Sándor Téri ... Huszár
Шандор Цветко / Sándor Czvetkó ... Anarchista fiú
Эндре Коронци / Endre Koronczi ... Lift boy
Агнеш Ковач / Ágnes Kovács ... Iker
Эстер Ковач / Eszter Kovács ... Iker

Описание: Этот фильм называют волшебным, полным красоты и глубокого значения, хотя фабула его очень проста. Двух девочек-близнецов, Дору и Лили, в раннем детстве разлучают, и они не знают о существовании друг друга до поры до времени. Одна становится анархисткой, другая - дамой полусвета. Встреча с господином Z (Олег Янковский) станет для них поворотной…

Дебютный фильм Ильдико Энеди «Мой двадцатый век», который «Нью-Йорк Таймс» назвала "лучшим венгерским фильмом всех времен", оказался своего рода путешествием скозь пространство и время, смесью философии, науки, искусства, истории и женского взгляда на мир. В рамках вполне определенной сюжетной канвы Энеди препарирует Вселенную и душу человека. Этот особый взгляд на мир заставил заговорить о новом явлении в мировом кино. (с) ТК «Культура»

Дополнительная информация:
Релиз:

Исходник найден в сети.

Автор рипа: pmv

Большое спасибо за:
- русскую аудиодорожку - Гость, uncledi, Trijop_007

* Награды и номинации:
Каннский кинофестиваль, 1989 год
Победитель:

- Золотая камера (награда за режиссерский дебют) (Ильдико Энеди)

IMDb = 7,1/10 (1007) - https://www.imdb.com/title/tt0096863/
Кинопоиск = 6.750 (313) - https://www.kinopoisk.ru/film/53179/

ВНИМАНИЕ!!! РИП ФОРМАТА mkv (кодек H.264) ВОСПРОИЗВОДИТСЯ НЕ НА ВСЕХ БЫТОВЫХ ВИДЕОПЛЕЕРАХ!!!

Параметры файла:
Название: Az en XX. szazadom (1989, rus_MVO+hun).mkv
Качество видео: WEB-DLRip-AVC
Формат видео: MKV
Размер: 2,05 ГБ (2 209 263 675 байт)
Продолжительность: 01:40:33
Перевод: Профессиональный (двухголосый закадровый) – ТК «Культура»
Оригинальная аудиодорожка: венгерский
Видео: AVC (H264), 896x648 (4:3), 25 fps, 2550 kbps, 0.176 Bits/Pixel
Аудио #1: AC3, 48 KHz, stereo (2 ch), 192 kbps – русский
Аудио #2: AC3, 48 KHz, stereo (2 ch), 192 kbps – венгерский



General
Unique ID : 27331403899027404949494549801413583286 (0x148FD64054FBB2A1B83779FEE23321B6)
Complete name : D:\torrents\Az en XX. szazadom (1989, rus_MVO+hun).mkv
Format : Matroska
Format version : Version 4 / Version 2
File size : 2.06 GiB
Duration : 1h 40mn
Overall bit rate : 2 930 Kbps
Encoded date : UTC 2019-01-18 05:00:58
Writing application : mkvmerge v30.1.0 ('Forever And More') 64-bit
Writing library : libebml v1.3.6 + libmatroska v1.4.9
DURATION : 01:40:32.768000000
NUMBER_OF_FRAMES : 188524
NUMBER_OF_BYTES : 144786432
_STATISTICS_WRITING_APP : mkvmerge v30.1.0 ('Forever And More') 64-bit
_STATISTICS_WRITING_DATE_UTC : 2019-01-18 05:00:58
_STATISTICS_TAGS : BPS DURATION NUMBER_OF_FRAMES NUMBER_OF_BYTES

Video
ID : 1
Format : AVC
Format/Info : Advanced Video Codec
Format profile : High@L4.1
Format settings, CABAC : Yes
Format settings, ReFrames : 14 frames
Codec ID : V_MPEG4/ISO/AVC
Duration : 1h 40mn
Bit rate : 2 550 Kbps
Width : 896 pixels
Height : 648 pixels
Display aspect ratio : 1.383
Frame rate mode : Constant
Frame rate : 25.000 fps
Color space : YUV
Chroma subsampling : 4:2:0
Bit depth : 8 bits
Scan type : Progressive
Bits/(Pixel*Frame) : 0.176
Stream size : 1.75 GiB (85%)
Writing library : x264 core 130 r2273 b3065e6
Encoding settings : cabac=1 / ref=14 / deblock=1:0:0 / analyse=0x3:0x133 / me=umh / subme=10 / psy=1 / psy_rd=1.00:0.00 / mixed_ref=1 / me_range=24 / chroma_me=1 / trellis=2 / 8x8dct=1 / cqm=0 / deadzone=21,11 / fast_pskip=1 / chroma_qp_offset=-2 / threads=48 / lookahead_threads=5 / sliced_threads=0 / nr=0 / decimate=1 / interlaced=0 / bluray_compat=0 / constrained_intra=0 / bframes=8 / b_pyramid=2 / b_adapt=2 / b_bias=0 / direct=3 / weightb=1 / open_gop=0 / weightp=2 / keyint=250 / keyint_min=25 / scenecut=40 / intra_refresh=0 / rc_lookahead=60 / rc=2pass / mbtree=1 / bitrate=2550 / ratetol=1.0 / qcomp=0.60 / qpmin=0 / qpmax=69 / qpstep=4 / cplxblur=20.0 / qblur=0.5 / ip_ratio=1.40 / aq=1:1.00
Language : Hungarian
Default : Yes
Forced : No

Audio #1
ID : 2
Format : AC-3
Format/Info : Audio Coding 3
Mode extension : CM (complete main)
Format settings, Endianness : Big
Codec ID : A_AC3
Duration : 1h 40mn
Bit rate mode : Constant
Bit rate : 192 Kbps
Channel(s) : 2 channels
Channel positions : Front: L R
Sampling rate : 48.0 KHz
Bit depth : 16 bits
Compression mode : Lossy
Stream size : 138 MiB (7%)
Language : Russian
Default : Yes
Forced : No

Audio #2
ID : 3
Format : AC-3
Format/Info : Audio Coding 3
Mode extension : CM (complete main)
Format settings, Endianness : Big
Codec ID : A_AC3
Duration : 1h 40mn
Bit rate mode : Constant
Bit rate : 192 Kbps
Channel(s) : 2 channels
Channel positions : Front: L R
Sampling rate : 48.0 KHz
Bit depth : 16 bits
Compression mode : Lossy
Stream size : 138 MiB (7%)
Language : Hungarian
Default : No
Forced : No








https://ru-tracker.org/forum/viewtopic.php?t=2265249
Гость, DVDRip, AVI, 656x488, 1.46 GB < > CaCa48, WEB-DLRip, MKV, 896x648, 1.46 GB
http://screenshotcomparison.com/comparison/128197


МОИ РАЗДАЧИ НА ФЕНИКСе: ЗДЕСЬ




Это сообщение отредактировал SanSan48 - 20.01.2019 - 09:49


--------------------
"Спартак" - ЧЕМПИОН!!!

Скрыть подпись


bondsun
№2 Отправлено: 20.01.2019 - 09:47


кучерявый

Группа: Потребители
Регистрация: 17.08.2009
Сообщений: 4781
Обитает:
Последний раз был:
cегодня в 15:19





Благодарствую, архивы в порядке.


--------------------
Пусть рушится мир весь вокруг, пополам,
Пусть часто фортуна не прёт.
Не кофе нас должен бодрить по утрам,
А тот, кто его подаёт.

happy.gif

Скрыть подпись
Top
SanSan48
№3 Отправлено: 20.01.2019 - 09:51


"Спартак" - ЧЕМПИОН!!!

Группа: Пользователи
Регистрация: 28.12.2009
Сообщений: 2050
Обитает:
Последний раз был:
cегодня в 15:52




Цитата
( bondsun @ 20.01.2019 - 09:47)
Благодарствую, архивы в порядке.

bondsun, Спасибо за сообщение!

Приятного всем просмотра!


--------------------
"Спартак" - ЧЕМПИОН!!!

Скрыть подпись
Top
1 человек просматривает эту тему (1 гость)
« Предыдущая тема | Зарубежные фильмы | Следующая тема »


 



[Script Execution time: 0,0552]   [24 queries used]   [GZIP enabled]