Заходят многие - остаются лучшие!
Здравствуйте Гость ( Вход | Регистрация ) Выслать повторно письмо для активации
Вход
Ваше имя Пароль Забыли пароль?
Запомнить Вас?
Войти скрытым?



 Правила раздела Новые сообщения раздела  


 

 Шахматист / Le joueur d'échecs (1938), Конрад Фейдт, Франсуаза Розе / экранизация, драма
surzhoks
  №1 Отправлено: 4.04.2020 - 11:57


Живёт здесь

Группа: Аксакалы
Регистрация: 17.03.2008
Сообщений: 1188
Обитает:
Последний раз был:
31.05.2020 - 10:17




Шахматист / Le joueur d'échecs


Страна: Франция
Студия: Société des Films Vega
Жанр: драма
Год выпуска: 1938
Продолжительность: 01:21:49
Режиссер: Жан Древиль / Jean Dréville
Композитор: Жан Ленуар / Jean Lenoir

В ролях:
Конрад Фейдт / Conrad Veidt ... Барон де Кемпелен
Франсуаза Розе / Françoise Rosay ... Екатерина II
Бернар Ланкре / Bernard Lancret ... Князь Серж Облонский
Мишлин Франсе / Micheline Francey ... Соня Воровская
Поль Камбо / Paul Cambo ... Болеслав Воровский
Жак Гретийя / Jacques Grétillat ... Потёмкин
Жан Темерсон / Jean Témerson ... Стани́слав, король Польши
Гастон Модо / Gaston Modot ... Майор Николаев
Эдмонда Ги / Edmonde Guy ... Ванда Залевская

Описание: 1776 год. Эксцентричный изобретатель барон де Кемпелен ("очень странный персонаж" - как его охарактеризовал Вольтер), пользующийся покровительством императрицы Екатерины II, создает различные удивительные механизмы, в том числе и автоматы, поразительно похожие на живых людей. Один из таких автоматов копирует облик покойной графини Воровской, которую барон любил и которая поручила ему позаботиться о её сыне Болеславе. Для Болеслава главным в жизни является борьба за свободу своей родины, Польши, и приёмная дочь его матери, прелестная юная Соня, к которой он испытывает отнюдь не братские чувства. Соня Воровская становится для польских патриотов символом освобождения и независимости, тысячи людей готовы сражаться под флагами с её изображением. Но восстание, вспыхнувшее неожиданно, оказывается жестоко подавлено, и за голову Болеслава назначают огромную награду. И барону де Кемпелену приходит в голову идея спрятать Болеслава, отлично играющего в шахматы, в шахматный автомат, Турок, и под прикрытием сенсации от демонстрации фантастического изобретения, вывезти его заграницу. Казалось бы у подобной авантюры значительные шансы на успех, но не всё так просто...
Экранизация одноимённого романа Анри Дюпюи-Мазеля.

Доп. информация:
Огромное спасибо всем причастным к релизу:
рип - Магда,
перевод на слух и подготовка субтитров - Lisok,
озвучивание фильма (по русским субтитрам)- Матвей Кенс,
работа со звуком - porvaliparus,
финансовая поддержка перевода и озвучивания фильма:Магда, Lafajet, jasenka, yanaelisa, борюська, елена 22, sindzi, GalaUkr, voostorg, Wrobel, mumzik69

Архивы созданы RAR-архиватором с добавлением 3% на восстановление и снабжены sfv-проверочником.
Просьба к первому скачавшему отписаться о сохранности архивов на источнике раздачи.

Раздача рассчитана на 2 месяца. На просмотр линка и скачивание 5 дней!
В случае если вы встали в очередь, а затем отказываетесь от скачивания без объяснения причин, возможен отказ в последующих моих раздачах.



Полное имя :Le joueur d'echecs.avi
Формат : AVI
Формат/Информация : Audio Video Interleave
Размер файла : 1,37 Гбайт
Продолжительность : 1 ч. 21 м.
Общий поток : 2398 Кбит/сек
Программа кодирования : VirtualDubMod 1.5.10.3 | www.virtualdub-fr.org || (build 2550/release)
Библиотека кодирования : VirtualDubMod build 2550/release

Видео
Идентификатор : 0
Формат : MPEG-4 Visual
Профиль формата : Advanced Simple@L5
Параметр BVOP формата : 2
Параметр QPel формата : Нет
Параметр GMC формата : Без точки перехода
Параметр матрицы формата : Default (H.263)
Идентификатор кодека : XVID
Идентификатор кодека/Подсказка : XviD
Продолжительность : 1 ч. 21 м.
Битрейт : 2000 Кбит/сек
Ширина : 672 пикселя
Высота : 512 пикселей
Соотношение сторон : 4:3
Частота кадров : 25,000 кадров/сек
Цветовое пространство : YUV
Субдискретизация насыщенности : 4:2:0
Битовая глубина : 8 бит
Тип развёртки : Прогрессивная
Метод сжатия : С потерями
Бит/(Пиксели*Кадры) : 0.232
Размер потока : 1,14 Гбайт (83%)
Библиотека кодирования : XviD 73

Аудио #1
Идентификатор : 1
Формат : AC-3
Формат/Информация : Audio Coding 3
Расширение режима : CM (complete main)
Параметр Endianness формата : Big
Идентификатор кодека : 2000
Продолжительность : 1 ч. 21 м.
Вид битрейта : Постоянный
Битрейт : 192 Кбит/сек
Каналы : 2 канала
Расположение каналов : Front: L R
Частота : 48,0 КГц
Битовая глубина : 16 бит
Метод сжатия : С потерями
Размер потока : 112 Мбайт (8%)
Выравнивание : Разделение по промежуткам
Продолжительность промежутка : 40 мс. (1,00 видеокадр)
Время предзагрузки промежутка : 500 мс.

Аудио #2
Идентификатор : 2
Формат : AC-3
Формат/Информация : Audio Coding 3
Расширение режима : CM (complete main)
Параметр Endianness формата : Big
Идентификатор кодека : 2000
Продолжительность : 1 ч. 21 м.
Вид битрейта : Постоянный
Битрейт : 192 Кбит/сек
Каналы : 2 канала
Расположение каналов : Front: L R
Частота : 48,0 КГц
Битовая глубина : 16 бит
Метод сжатия : С потерями
Размер потока : 112 Мбайт (8%)
Выравнивание : Разделение по промежуткам
Продолжительность промежутка : 40 мс. (1,00 видеокадр)
Время предзагрузки промежутка : 500 мс.




vjub58
№2 Отправлено: 4.04.2020 - 12:52


Практикующий эсквайр

Группа: Аксакалы
Регистрация: 6.12.2005
Сообщений: 5508
Обитает:
Последний раз был:
cегодня в 18:00




Спасибо, все ОК. pozdrav_buket.gif
Top
1 человек просматривает эту тему (1 гость)
« Предыдущая тема | Зарубежные фильмы | Следующая тема »


 



[Script Execution time: 0,0622]   [23 queries used]   [GZIP enabled]