Заходят многие - остаются лучшие!
Здравствуйте Гость ( Вход | Регистрация ) Выслать повторно письмо для активации
Вход
Ваше имя Пароль Забыли пароль?
Запомнить Вас?
Войти скрытым?



 Правила раздела Новые сообщения раздела  


 

 Корабль-призрак / The Ghost Ship (1943), Ричард Дикс / триллер, драма, детектив
surzhoks
  №1 Отправлено: 24.02.2018 - 18:14


Живёт здесь

Группа: Аксакалы
Регистрация: 17.03.2008
Сообщений: 1065
Обитает:
Последний раз был:
вчера в 20:26




Корабль-призрак / The Ghost Ship


Страна: США
Студия: RKO Radio Pictures Inc.
Жанр: триллер, драма, детектив
Год выпуска: 1943
Продолжительность: 01:09:19
Режиссер: Марк Робсон / Mark Robson
Композитор: Рой Уэбб / Roy Webb

В ролях:
Ричард Дикс / Richard Dix ... Capt. Will Stone
Расселл Вэйд / Russell Wade ... 3rd Officer Tom Merriam / Tertius
Эдит Баррет / Edith Barrett ... Ellen Roberts
Бен Бард / Ben Bard ... First Officer Bowns
Эдмунд Гловер / Edmund Glover ... Jacob «Sparks» Winslow, Radioman
Роберт Байс / Robert Bice ... Raphael, the Steward, в титрах не указан
Эдди Борден / Eddie Borden ... Crew Member, в титрах не указан
Джордж ДеНорманд / George DeNormand ... John, в титрах не указан
Стив Форрест / Steve Forrest ... Sailor, в титрах не указан

Описание: Молодой морской офицер Том Мерриам прибывает в порт Сан-Педро, чтобы занять должность третьего помощника капитана торгового судна «Альтаир». Перед посадкой на судно Мерриам встречает слепого нищего, который предупреждает его о том, что это плохой корабль. Это сообщение не вызывает у молодого человека ничего кроме усмешки. Но не успел корабль отчалить, как один из членов экипажа был найден мертвым. И вскоре трупов становится все больше. Том Мерриам начинает подозревать, что во всём виноват капитан корабля Уилл Стоун, одержимый идеей власти и авторитета.

Доп. информация:
Огромное спасибо всем причастным к релизу:
рип - Магда,
перевод фильма, субтитры - karlivanovich,
озвучивание фильма (по русским субтитрам)- fiendover (Виктор Рутилов),
работа со звуком и реавторинг DVD- AlekceyR76,
финансовая поддержка перевода и озвучивания фильма:
Магда, Lafajet, jasenka, елена 22, yanaelisa, STICK24, sindzi, voostorg, Ugo927, mangust1, борюська, HippopotamusIV, cementit, spartakeynoir

Архивы созданы RAR-архиватором с добавлением 3% на восстановление и снабжены sfv-проверочником.
Просьба к первому скачавшему отписаться о сохранности архивов на источнике раздачи.

Раздача рассчитана на 2 месяца. На просмотр линка и скачивание 5 дней!
В случае если вы встали в очередь, а затем отказываетесь от скачивания без объяснения причин, возможен отказ в последующих моих раздачах.



Полное имя :The Ghost Ship.avi
Формат : AVI
Формат/Информация : Audio Video Interleave
Размер файла : 1,10 Гбайт
Продолжительность : 1 ч. 9 м.
Общий поток : 2265 Кбит/сек
Программа кодирования : VirtualDubMod 1.5.10.3 | www.virtualdub-fr.org || (build 2550/release)
Библиотека кодирования : VirtualDubMod build 2550/release

Видео
Идентификатор : 0
Формат : MPEG-4 Visual
Профиль формата : Advanced Simple@L5
Параметр BVOP формата : 2
Параметр QPel формата : Нет
Параметр GMC формата : Без точки перехода
Параметр матрицы формата : Default (H.263)
Идентификатор кодека : DX50
Идентификатор кодека/Подсказка : DivX 5
Продолжительность : 1 ч. 9 м.
Битрейт : 1867 Кбит/сек
Ширина : 624 пикселя
Высота : 480 пикселей
Соотношение сторон : 4:3
Частота кадров : 23,976 кадра/сек
Цветовое пространство : YUV
Субдискретизация насыщенности : 4:2:0
Битовая глубина : 8 бит
Тип развёртки : Прогрессивная
Метод сжатия : С потерями
Бит/(Пиксели*Кадры) : 0.260
Размер потока : 926 Мбайт (82%)
Библиотека кодирования : XviD 73

Аудио #1
Идентификатор : 1
Формат : AC-3
Формат/Информация : Audio Coding 3
Расширение режима : CM (complete main)
Параметр Endianness формата : Big
Идентификатор кодека : 2000
Продолжительность : 1 ч. 9 м.
Вид битрейта : Постоянный
Битрейт : 192 Кбит/сек
Каналы : 1 канал
Расположение каналов : Front: C
Частота : 48,0 КГц
Битовая глубина : 16 бит
Метод сжатия : С потерями
Размер потока : 95,2 Мбайт (8%)
Выравнивание : Разделение по промежуткам
Продолжительность промежутка : 42 мс. (1,00 видеокадр)
Время предзагрузки промежутка : 500 мс.

Аудио #2
Идентификатор : 2
Формат : AC-3
Формат/Информация : Audio Coding 3
Расширение режима : CM (complete main)
Параметр Endianness формата : Big
Идентификатор кодека : 2000
Продолжительность : 1 ч. 9 м.
Вид битрейта : Постоянный
Битрейт : 192 Кбит/сек
Каналы : 1 канал
Расположение каналов : Front: C
Частота : 48,0 КГц
Битовая глубина : 16 бит
Метод сжатия : С потерями
Размер потока : 95,2 Мбайт (8%)
Выравнивание : Разделение по промежуткам
Продолжительность промежутка : 42 мс. (1,00 видеокадр)
Время предзагрузки промежутка : 500 мс.




OldLady
№2 Отправлено: 24.02.2018 - 19:59


секрет

Группа: Аксакалы
Регистрация: 26.03.2006
Сообщений: 3234
Последний раз был:
cегодня в 10:45




Все в порядке, спасибо!
Top
dora
№3 Отправлено: 1.03.2018 - 02:32


Живёт здесь

Группа: Аксакалы
Регистрация: 28.02.2006
Сообщений: 2318
Обитает:
Последний раз был:
8.07.2018 - 03:30




Извините, встала в эту очередь по ошибке roza.gif


--------------------
"Пусть Родина моя умрет за меня!"

Скрыть подпись
Top
1 человек просматривает эту тему (1 гость)
« Предыдущая тема | Зарубежные фильмы | Следующая тема »


 



[Script Execution time: 0,1522]   [22 queries used]   [GZIP enabled]