Здравствуйте Гость ( Вход | Регистрация ) Выслать повторно письмо для активации
Вход
Ваше имя Пароль Забыли пароль?
Запомнить Вас?
Войти скрытым?



 Правила раздела Новые сообщения раздела  


 

 Неподдающиеся (1959), Советская культовая комедия 60-х годов в качестве HD 1080
SanSan48
  №1 Отправлено: 19.11.2019 - 13:58


"Спартак" - ЧЕМПИОН!!!

Группа: Пользователи
Регистрация: 28.12.2009
Сообщений: 2100
Обитает:
Последний раз был:
cегодня в 10:48




Неподдающиеся (1959)



Предыдущие раздачи:
29.04.2015 (DVDrip) , 06.06.2015 (DVDrip) , 25.11.2013 (DVDrip)
25.09.2010 (DVDrip) , 25.07.2010 (DVDrip) , 25.08.2007 (DVDrip)
7.02.2007 (VHSrip)

Жанр: Комедия
Выпущено: СССР, Мосфильм
Год выпуска: 1959
Премьера (СССР): 20 июня 1959 (СССР, 31 300 000 чел.)
Премьера (мир): 18 февраля 1960 (Венгрия)
Сценаристы: Татьяна Сытина
Оператор: Константин Бровин
Композитор: Кирилл Молчанов, Антонио Спадавеккиа
Художники: Ирина Шретер
Монтажёр: Мария Тимофеева

Режиссёр: Юрий Чулюкин

В ролях:
Надежда Румянцева ... Надя Берестова
Юрий Белов ... Толя Грачкин
Алексей Кожевников ... Витя Громобоев
Валентин Козлов ... Володя Яковлев (дублирует Виктор Рождественский)
Светлана Харитонова ... Лиза Кукушкина, подруга Нади
Юрий Никулин ... Альберт Клячкин
Владимир Земляникин ... Зернов
Вера Карпова ... Роза Каткова
Константин Нассонов ... Андрей Ильич Барышев, директор завода
Иван Каширин ... Иван Игнатьевич Ватагин, мастер цеха
Сергей Филиппов ... милиционер
Лилия Гриценко ... мама Нади
Нина Агапова ... массовик-затейник
Евгений Быкадоров ... тренер по прыжкам в воду
Николай Курочкин ... лектор

Описание: Из-за двух непутёвых и ветреных весельчаков мучается целая молодёжная бригада. Перевоспитать оболтусов доверено комсомолке Наде. Она берётся за порученное дело с настоящим энтузиазмом: водит их на лекции об обитателях морского дна, читает "Обломова", пробует отучить пить и курить. Но после того как "неподдающиеся" обводят её несколько раз вокруг пальца, Надя осознаёт, что обычные методы здесь не подходят...

Дополнительная информация: Релиз:

Исходник найден в сети.

Автор рипа: pmv

IMDb = 7,3/10 (305) - https://www.imdb.com/title/tt0147081/
Кинопоиск = 8.050 (10204) - https://www.kinopoisk.ru/film/46403/

ВНИМАНИЕ!!! РИП ФОРМАТА mkv (кодек H.264) ВОСПРОИЗВОДИТСЯ НЕ НА ВСЕХ БЫТОВЫХ ВИДЕОПЛЕЕРАХ!!!

Параметры файла:
Название: Неподдающиеся (1959).mkv
Качество видео: WEB-DLRip-AVC
Формат видео: MKV
Размер: 1,45 ГБ (1 562 498 154 байт)
Продолжительность: 01:18:46
Видео: AVC (H264), 880x648 (4:3), 24 fps, 2450 kbps, 0.179 Bits/Pixel
Аудио: AC3, 48 KHz, stereo (2 ch), 192 kbps



General
Unique ID : 154472323246624350795204763645629185638 (0x7436498BF78006F5655EE240BAF03E66)
Complete name : D:\torrents\Неподдающиеся (1959).mkv
Format : Matroska
Format version : Version 4 / Version 2
File size : 1.46 GiB
Duration : 1 h 18 min
Overall bit rate : 2 645 kb/s
Encoded date : UTC 2019-11-15 21:11:15
Writing application : mkvmerge v40.0.0 ('Old Town Road + Pony') 64-bit
Writing library : libebml v1.3.9 + libmatroska v1.5.2

Video
ID : 1
Format : AVC
Format/Info : Advanced Video Codec
Format profile : High@L4.1
Format settings, CABAC : Yes
Format settings, RefFrames : 14 frames
Codec ID : V_MPEG4/ISO/AVC
Duration : 1 h 18 min
Bit rate : 2 450 kb/s
Width : 880 pixels
Height : 648 pixels
Display aspect ratio : 4:3
Frame rate mode : Constant
Frame rate : 24.000 FPS
Color space : YUV
Chroma subsampling : 4:2:0
Bit depth : 8 bits
Scan type : Progressive
Bits/(Pixel*Frame) : 0.179
Stream size : 1.35 GiB (93%)
Writing library : x264 core 146 r2538 121396c
Encoding settings : cabac=1 / ref=14 / deblock=1:0:0 / analyse=0x3:0x133 / me=umh / subme=10 / psy=1 / psy_rd=1.00:0.00 / mixed_ref=1 / me_range=24 / chroma_me=1 / trellis=2 / 8x8dct=1 / cqm=0 / deadzone=21,11 / fast_pskip=1 / chroma_qp_offset=-2 / threads=48 / lookahead_threads=5 / sliced_threads=0 / nr=0 / decimate=1 / interlaced=0 / bluray_compat=0 / constrained_intra=0 / bframes=8 / b_pyramid=2 / b_adapt=2 / b_bias=0 / direct=3 / weightb=1 / open_gop=0 / weightp=2 / keyint=250 / keyint_min=24 / scenecut=40 / intra_refresh=0 / rc_lookahead=60 / rc=2pass / mbtree=1 / bitrate=2450 / ratetol=1.0 / qcomp=0.60 / qpmin=0 / qpmax=69 / qpstep=4 / cplxblur=20.0 / qblur=0.5 / ip_ratio=1.40 / aq=1:1.00
Language : Russian
Default : Yes
Forced : No

Audio
ID : 2
Format : AC-3
Format/Info : Audio Coding 3
Format settings, Endianness : Big
Codec ID : A_AC3
Duration : 1 h 18 min
Bit rate mode : Constant
Bit rate : 192 kb/s
Channel(s) : 2 channels
Channel positions : Front: L R
Sampling rate : 48.0 kHz
Frame rate : 31.250 FPS (1536 SPF)
Bit depth : 16 bits
Compression mode : Lossy
Stream size : 108 MiB (7%)
Language : Russian
Service kind : Complete Main
Default : Yes
Forced : No





МОИ РАЗДАЧИ НА ФЕНИКСе: ЗДЕСЬ




Это сообщение отредактировал SanSan48 - 19.11.2019 - 14:00


--------------------
"Спартак" - ЧЕМПИОН!!!

Скрыть подпись


OldLady
№2 Отправлено: 19.11.2019 - 14:11


секрет

Группа: Аксакалы
Регистрация: 26.03.2006
Сообщений: 3968
Последний раз был:
cегодня в 02:32




Архив в порядке, спасибо за раздачу!


Это сообщение отредактировал OldLady - 19.11.2019 - 14:12
Top
SanSan48
№3 Отправлено: 19.11.2019 - 14:27


"Спартак" - ЧЕМПИОН!!!

Группа: Пользователи
Регистрация: 28.12.2009
Сообщений: 2100
Обитает:
Последний раз был:
cегодня в 10:48




Цитата
( OldLady @ 19.11.2019 - 14:11)
Архив в порядке, спасибо за раздачу!

OldLady, Благодарю за оперативное положительное сообщение!

Все старые рипы этого фильма срочно выкидывайте - в раздаче рип прекрасного качества!

Приятного всем просмотра!


--------------------
"Спартак" - ЧЕМПИОН!!!

Скрыть подпись
Top
1 человек просматривает эту тему (1 гость)
« Предыдущая тема | Отечественное кино | Следующая тема »


 



[Script Execution time: 0,0473]   [23 queries used]   [GZIP enabled]