Здравствуйте Гость ( Вход | Регистрация ) Выслать повторно письмо для активации
Вход
Ваше имя Пароль Забыли пароль?
Запомнить Вас?
Войти скрытым?



Новые сообщения раздела  

 

 Леопарды дельты Окаванго / National Geographic. Leopards of Dead Tree Island (2010), National Geographic
bornik
  №1 Отправлено: 17.09.2017 - 14:14


Воспоминания - это богатства старости.

Группа: Модераторы
Регистрация: 18.08.2008
Сообщений: 988
Обитает:
Последний раз был:
cегодня в 06:04




Леопарды дельты Окаванго / National Geographic. Leopards of Dead Tree Island (2010)



«Леопарды дельты Окаванго» - Окаванго является источником питания и водоснабжения в данном регионе почти для всех живых организмов. Особенно прекрасна под палящим солнцем Окаванго во время разлива. Болотистая среда идеально подходит для крокодилов, бегемотов и антилоп. Изумрудные заросли тростника привлекают большое количество пернатых. Острова акаций и лугов являются пристанищем для слонов, буйволов и зебр. Дельта Окаванго является источником питания и для хищников. Стаи львов, гиен и леопардов затаиваются среди густой травы в поисках добычи.
Такая прекрасная, несущая смерть и жизнь в пустынные земли, дельта реки Окаванго является одним из немногих нетронутых человеком мест на планете.

Название: Леопарды дельты Окаванго
Оригинальное название: Leopards of Dead Tree Island
Год выпуска: 2010
Жанр: Документальный, природа, фауна, флора
Выпущено: США, Earth-Touch Ltd, National Geographic
Продолжительность: 00:44:59
Субтитры: Русские (мои)

Режиссёр: Майкл Розенберг / Michael Rosenberg

Программа озвучена студией "АРК•ТВ"
Текст читает: Игорь Тарадайкин

Описание: "Леопарды дельты Окаванго" - в дельте реки Окванго в Ботсване спрятался остров. Здесь не иссякает вода, обильные пастбища - это желанное место для многих. Здесь в тени скрываются самые загадочные животные семейства кошачьих. Трем леопардам приходится делить одну территорию и существовать во все более непростых условиях. Непререкаемый вожак этой территории, доминантный самец, леопард по кличке Будда. Одна из его самок часто наведывается в его владения. Их трехлетний сын сильно рискует, оставаясь на территории родителей. По законам леопардов к этому времени он уже должен был начать отдельную жизнь.








General
Complete name : C:\DVD documental fimls\Леопарды дельты Окаванго\Леопарды дельты Окаванго (2010).avi
Format : AVI
Format/Info : Audio Video Interleave
File size : 710 MiB
Duration : 44mn 59s
Overall bit rate : 2 206 Kbps
Writing application : VirtualDubMod 1.5.10.2 (build 2540/release)
Writing library : VirtualDubMod build 2540/release

Video
ID : 0
Format : MPEG-4 Visual
Format profile : Advanced Simple@L5
Format settings, BVOP : 2
Format settings, QPel : No
Format settings, GMC : No warppoints
Format settings, Matrix : Default (H.263)
Muxing mode : Packed bitstream
Codec ID : XVID
Codec ID/Hint : XviD
Duration : 44mn 59s
Bit rate : 2 004 Kbps
Width : 720 pixels
Height : 400 pixels
Display aspect ratio : 16:9
Frame rate : 25.000 fps
Color space : YUV
Chroma subsampling : 4:2:0
Bit depth : 8 bits
Scan type : Progressive
Compression mode : Lossy
Bits/(Pixel*Frame) : 0.278
Stream size : 645 MiB (91%)
Writing library : XviD 73

Audio
ID : 1
Format : MPEG Audio
Format version : Version 1
Format profile : Layer 3
Codec ID : 55
Codec ID/Hint : MP3
Duration : 44mn 59s
Bit rate mode : Constant
Bit rate : 192 Kbps
Channel(s) : 2 channels
Sampling rate : 48.0 KHz
Compression mode : Lossy
Stream size : 61.8 MiB (9%)
Alignment : Aligned on interleaves
Interleave, duration : 40 ms (1.00 video frame)
Interleave, preload duration : 504 ms
Writing library : LAME3.99r
Encoding settings : -m s -V 4 -q 3 -lowpass 18.6 -b 192


Записались на автоматическое включение в очередь: Alevtina, Nadejdaenergia, baziss, grival406, медикус

Если вы хотите, чтобы вас автоматически ставили в очередь на следующие фильмы о природе,
- сообщите об этом в теме последней раздачи.


=================================

Исходником послужил релиз HDTV, найденный на просторах инета!

Архивы созданы RAR-архиватором с добавлением 3% на восстановление и снабжены sfv-проверочником.
Просьба к первому скачавшему отписаться о сохранности архивов на источнике раздачи.

Раздача рассчитана на месяц.

ПРИЯТНОГО ВСЕМ ПРОСМОТРА !!!




--------------------
Безоблачная старость – это миф,
Поскольку наша память – ширь морская,
И к ночи начинается прилив,
Со дна обломки прошлого таская.
Игорь Губерман

Скрыть подпись


baziss
№2 Отправлено: 17.09.2017 - 16:29


Аксакал обыкновенный

Группа: Аксакалы
Регистрация: 4.12.2005
Сообщений: 2499
Обитает:
Последний раз был:
вчера в 17:16




Архив в порядке. Спасибо большое!


--------------------

Скрыть подпись
Top
bornik
№3 Отправлено: 17.09.2017 - 16:31


Воспоминания - это богатства старости.

Группа: Модераторы
Регистрация: 18.08.2008
Сообщений: 988
Обитает:
Последний раз был:
cегодня в 06:04




Цитата
( baziss @ 17.09.2017 - 16:29)
Архив в порядке. Спасибо большое!

И Вам, baziss, спасибо за добрую весть. happy_fly.gif


--------------------
Безоблачная старость – это миф,
Поскольку наша память – ширь морская,
И к ночи начинается прилив,
Со дна обломки прошлого таская.
Игорь Губерман

Скрыть подпись
Top
1 человек просматривает эту тему (1 гость)
« Предыдущая тема | Мир вокруг нас | Следующая тема »


 



[Script Execution time: 0,0290]   [22 queries used]   [GZIP enabled]