Заходят многие - остаются лучшие!
Здравствуйте Гость ( Вход | Регистрация ) Выслать повторно письмо для активации
Вход
Ваше имя Пароль Забыли пароль?
Запомнить Вас?
Войти скрытым?



 Правила раздела Новые сообщения раздела  


 

 Мими / Mimi (1935), драма / в гл. роли Дуглас Фэрбенкс мл.
surzhoks
  №1 Отправлено: 11.05.2017 - 18:27


Живёт здесь

Группа: Аксакалы
Регистрация: 17.03.2008
Сообщений: 1100
Обитает:
Последний раз был:
13.12.2018 - 17:49




Мими / Mimi


Страна: Великобритания
Студия: British International Pictures (BIP)
Жанр: драма
Год выпуска: 1935
Продолжительность: 01:29:25
Режиссер: Пол Л. Стейн / Paul L. Stein
Композитор: Дж. Г. Клатсэм / G.H. Clutsam
В ролях:
Дуглас Фэрбенкс мл. / Douglas Fairbanks Jr. ... Rodolphe
Гертруда Лоуренс / Gertrude Lawrence ... Mimi
Диана Напье / Diana Napier ... Mme. Sidonie
Гарольд Уоррендер / Harold Warrender ... Marcel
Кэрол Гуднер / Carol Goodner ... Musette
Ричард Бёрд / Richard Bird ... Colline
Мартин Уолкер / Martin Walker ... Schaunard
Остин Тревор / Austin Trevor ... Lamotte
Лоренс Ханрей / Laurence Hanray ... Barbemouche
Пол Грэц / Paul Graetz ... Durand
Джек Рэйне / Jack Raine ... Duke

Описание: Очаровательная Мими расстается со своим любовником, актером Национального театра Ламоттом, и влюбляется в бедного драматурга Рудольфа. Рудольф и его друзья весело проводят время, забывая о работе, и Мими убеждает нового возлюбленного отложить развлечения с целью посвятить свое время творческому труду. Рудольф приступает к созданию пьесы "Богема". В то же время Ламотт продолжает надеяться на возвращение покинувшей его девушки, которую он продолжает любить, а сама Мими прилагает все усилия, чтобы мужчина, ставший смыслом ее жизни, достиг успеха, и не подозревает о том, какие испытания ждут ее впереди...
По мотивам романа Анри Мюрже “Сцены из жизни богемы”.

- В 1896 Дж. Пуччини написал по мотивам этой книги оперу «Богема», в 1897 г. Руджеро Леонкавалло — оперу с тем же названием, а в 1930 г. Имре Кальман — оперетту «Фиалка Монмартра».
Доп. информация:
Огромное спасибо всем причастным к релизу:
рип - Магда,
перевод и озвучивание фильма - fiendover (Виктор Рутилов),
работа со звуком и реавторинг исходного DVD- AlekceyR76,
финансовая поддержка перевода и озвучивания фильма:
Магда, Lafajet, jasenka, елена 22, yanaelisa, борюська, sindzi, voostorg, old76, mumzik69, HippopotamusIV, cementit, mangust1, spartakeynoir

Архивы созданы RAR-архиватором с добавлением 3% на восстановление и снабжены sfv-проверочником.
Просьба к первому скачавшему отписаться о сохранности архивов на источнике раздачи.

Раздача рассчитана на 2 месяца. На просмотр линка и скачивание 5 дней!
В случае если вы встали в очередь, а затем отказываетесь от скачивания без объяснения причин, возможен отказ в последующих моих раздачах.



Полное имя :Mimi.1935.DVDRip.avi
Формат : AVI
Формат/Информация : Audio Video Interleave
Размер файла : 1,58 Гбайт
Продолжительность : 1 ч. 29 м.
Общий поток : 2526 Кбит/сек
Программа кодирования : VirtualDubMod 1.5.4.1 (build 2178/release)
Библиотека кодирования : VirtualDubMod build 2178/release

Видео
Идентификатор : 0
Формат : MPEG-4 Visual
Профиль формата : Advanced Simple@L5
Параметр BVOP формата : 2
Параметр QPel формата : Нет
Параметр GMC формата : Без точки перехода
Параметр матрицы формата : Default (H.263)
Идентификатор кодека : DX50
Идентификатор кодека/Подсказка : DivX 5
Продолжительность : 1 ч. 29 м.
Битрейт : 2128 Кбит/сек
Ширина : 704 пикселя
Высота : 512 пикселей
Соотношение сторон : 1,375
Частота кадров : 25,000 кадров/сек
Цветовое пространство : YUV
Субдискретизация насыщенности : 4:2:0
Битовая глубина : 8 бит
Тип развёртки : Прогрессивная
Метод сжатия : С потерями
Бит/(Пиксели*Кадры) : 0.236
Размер потока : 1,33 Гбайт (84%)
Библиотека кодирования : XviD 73

Аудио #1
Идентификатор : 1
Формат : AC-3
Формат/Информация : Audio Coding 3
Расширение режима : CM (complete main)
Параметр Endianness формата : Big
Идентификатор кодека : 2000
Продолжительность : 1 ч. 29 м.
Вид битрейта : Постоянный
Битрейт : 192 Кбит/сек
Каналы : 2 канала
Расположение каналов : Front: L R
Частота : 48,0 КГц
Битовая глубина : 16 бит
Метод сжатия : С потерями
Размер потока : 123 Мбайт (8%)
Выравнивание : Разделение по промежуткам
Продолжительность промежутка : 40 мс. (1,00 видеокадр)
Время предзагрузки промежутка : 500 мс.

Аудио #2
Идентификатор : 2
Формат : AC-3
Формат/Информация : Audio Coding 3
Расширение режима : CM (complete main)
Параметр Endianness формата : Big
Идентификатор кодека : 2000
Продолжительность : 1 ч. 29 м.
Вид битрейта : Постоянный
Битрейт : 192 Кбит/сек
Каналы : 2 канала
Расположение каналов : Front: L R
Частота : 48,0 КГц
Битовая глубина : 16 бит
Метод сжатия : С потерями
Размер потока : 123 Мбайт (8%)
Выравнивание : Разделение по промежуткам
Продолжительность промежутка : 40 мс. (1,00 видеокадр)
Время предзагрузки промежутка : 500 мс.




kyo
№2 Отправлено: 11.05.2017 - 20:53


Живёт здесь

Группа: Потребители
Регистрация: 21.07.2007
Сообщений: 2077
Обитает:
Последний раз был:
cегодня в 14:50




Архивы в порядке, спасибо !
Top
1 человек просматривает эту тему (1 гость)
« Предыдущая тема | Зарубежные фильмы | Следующая тема »


 



[Script Execution time: 0,0685]   [23 queries used]   [GZIP enabled]