Заходят многие - остаются лучшие!
Здравствуйте Гость ( Вход | Регистрация ) Выслать повторно письмо для активации
Вход
Ваше имя Пароль Забыли пароль?
Запомнить Вас?
Войти скрытым?



Новые сообщения раздела  

 

 Зимний сезон / National Geographic. Wild Winter (2016), National Geographic
bornik
  №1 Отправлено: 2.02.2017 - 20:50


Воспоминания - это богатства старости.

Группа: Модераторы
Регистрация: 18.08.2008
Сообщений: 966
Обитает:
Последний раз был:
cегодня в 06:14




Зимний сезон / National Geographic. Wild Winter (2016)



«Зимний сезон» - фильм подробно расскажет о некоторых животных, как они выживают и какие трудности испытывают.

Название: Зимний сезон
Оригинальное название: Wild Winter
Год выпуска: 2016
Жанр: Документальный, фауна
Выпущено: США, National Geographic
Продолжительность: 00:43:56
Субтитры: Русские (мои)

Режиссёр: Карен Басс / Karen Bass

Текст читает: Дмитрий Стрелков

Описание: Зима пришла. Маленькие и большие животные, независимо от готовности, должны выстоять в это суровое и жестокое время года. В то время, как одни всеми силами цепляются за жизнь, другие находят возможность пользоваться преимуществами на льду. В этой передаче вы увидите, как животные любыми способами борются за выживание в холодный период.








General
Complete name : C:\DVD documental fimls\Зимний сезон (2016).avi
Format : AVI
Format/Info : Audio Video Interleave
File size : 693 MiB
Duration : 43mn 56s
Overall bit rate : 2 206 Kbps
Writing application : VirtualDubMod 1.5.10.2 (build 2540/release)
Writing library : VirtualDubMod build 2540/release

Video
ID : 0
Format : MPEG-4 Visual
Format profile : Advanced Simple@L5
Format settings, BVOP : 2
Format settings, QPel : No
Format settings, GMC : No warppoints
Format settings, Matrix : Default (H.263)
Muxing mode : Packed bitstream
Codec ID : XVID
Codec ID/Hint : XviD
Duration : 43mn 56s
Bit rate : 2 004 Kbps
Width : 720 pixels
Height : 400 pixels
Display aspect ratio : 16:9
Frame rate : 25.000 fps
Color space : YUV
Chroma subsampling : 4:2:0
Bit depth : 8 bits
Scan type : Progressive
Compression mode : Lossy
Bits/(Pixel*Frame) : 0.278
Stream size : 630 MiB (91%)
Writing library : XviD 65

Audio
ID : 1
Format : AC-3
Format/Info : Audio Coding 3
Mode extension : CM (complete main)
Codec ID : 2000
Duration : 43mn 56s
Bit rate mode : Constant
Bit rate : 192 Kbps
Channel(s) : 2 channels
Channel positions : Front: L R
Sampling rate : 48.0 KHz
Bit depth : 16 bits
Compression mode : Lossy
Stream size : 60.3 MiB (9%)
Alignment : Split accross interleaves
Interleave, duration : 40 ms (1.00 video frame)
Interleave, preload duration : 500 ms


=================================

Исходником послужил релиз HDTV, найденный на просторах инета!

Архивы созданы RAR-архиватором с добавлением 3% на восстановление и снабжены sfv-проверочником.
Просьба к первому скачавшему отписаться о сохранности архивов на источнике раздачи.


ПРИЯТНОГО ВСЕМ ПРОСМОТРА !!!




--------------------
Безоблачная старость – это миф,
Поскольку наша память – ширь морская,
И к ночи начинается прилив,
Со дна обломки прошлого таская.
Игорь Губерман

Скрыть подпись


Begemot48
№2 Отправлено: 3.02.2017 - 03:32


Посетитель

Группа: Потребители
Регистрация: 19.10.2010
Сообщений: 156
Обитает:
Последний раз был:
вчера в 15:14




Спасибо Архивы в порядке.
Top
bornik
№3 Отправлено: 3.02.2017 - 03:50


Воспоминания - это богатства старости.

Группа: Модераторы
Регистрация: 18.08.2008
Сообщений: 966
Обитает:
Последний раз был:
cегодня в 06:14




Цитата
( Begemot48 @ 3.02.2017 - 03:32)
Спасибо Архивы в порядке.

И Вам, Begemot48, спасибо за добрую весть. happy_fly.gif


--------------------
Безоблачная старость – это миф,
Поскольку наша память – ширь морская,
И к ночи начинается прилив,
Со дна обломки прошлого таская.
Игорь Губерман

Скрыть подпись
Top
1 человек просматривает эту тему (1 гость)
« Предыдущая тема | Мир вокруг нас | Следующая тема »


 



[Script Execution time: 0,0595]   [22 queries used]   [GZIP enabled]