Заходят многие - остаются лучшие!
Здравствуйте Гость ( Вход | Регистрация ) Выслать повторно письмо для активации
Вход
Ваше имя Пароль Забыли пароль?
Запомнить Вас?
Войти скрытым?



 Правила раздела Новые сообщения раздела  


 

 Девочка ищет отца (1959), Драма,военный;Реж.-Л.Голуб;Роли-А.Каменкова,В.Гуськов,В.Дорофеев
SanSan48
  №1 Отправлено: 17.06.2017 - 18:42


"Спартак" - ЧЕМПИОН!!!

Группа: Пользователи
Регистрация: 28.12.2009
Сообщений: 1759
Обитает:
Последний раз был:
cегодня в 14:35




Девочка ищет отца (1959)



Предыдущие раздачи:
05.12.2014 (SATrip)
24.02.2010 (TVrip)
30.04.2007 (SATrip)
08.12.2014 (SATrip) (Архив)

Жанр: Драма, военный
Выпущено: СССР, Беларусьфильм
Год выпуска: 1959
Премьера (СССР): 19 мая 1959
Премьера (мир): 18 февраля 1960 (Венгрия), 11 марта 1960 (Аргентина, Медународный кинофестиваль в Мар-дель-Плате)
Сценаристы: Кастусь (Константин) Губаревич, Евгений Рысс
Операторы: Олег Авдеев, Израиль Пикман
Композиторы: Юрий Бельзацкий, Владимир Оловников
Художники: Юрий Булычёв
Монтажер: Е.Федорова

Режиссеры: Лев Голуб

В ролях:
Анна Каменкова … Лена Микулич, четырехлетнюю девочка, дочь легендарного партизана - батьки Панаса
Владимир Гуськов … Янка, внук лесника
Николай Бармин … батька Панас, командир партизанского отряда, секретарь райкома партии Микулич
Владимир Дорофеев … лесник
Анна Егорова … Прасковья Ивановна
Евгений Григорьев … Константин Львович, фельдшер
Константин Барташевич … Гюнтер, немецкий комендант г. Запольска
Борис Кудрявцев … Булай, начальник полиции
Евгений Полосин … староста
Иван Шатилло … комиссар партизанского отряда
Геннадий Мичурин … штандартенфюрер СС
Виктор Уральский … партизан Володя
Нина Гребешкова … Анечка, внучка Прасковьи
Алевтина Румянцева … партизанка-медсестра
Таня Бейнерович … Нюша, шепелявящая девочка
Юрий Алифанов … Петрусь

Описание: Фильм снят по одноимённой пьесе Евгения Рысса, которая послужила также основой для повести с тем же названием.
В скрытый от немцев лесной домик, где живут только лесник с внуком, хозяин приносит четырехлетнюю девочку, не подозревая о том, что она — дочь легендарного партизана «батьки Панаса». Позже наивный старик раскроет гестаповцам местонахождение девочки. Поняв свою ошибку, он сделает все возможное, чтобы спасти детей…

Дополнительная информация: Релиз:

Автор рипа: pmv

Большое спасибо за:
- Исходник - AND01AND
(Запись потока *.ts с наземного цифрового телеканала "Беларусь 3")

IMDb = 7,0/10 (25) - http://www.imdb.com/title/tt0140954/
Кинопоиск = 7.252 (416) - https://www.kinopoisk.ru/film/44174/

* В данной раздаче представлено видео, качеством лучше, чем было ранее. Единственный недостаток по сравнению с предыдущим - немного обрезан кадр по бокам.

Для наглядности предлагается один кадр для сравнение предыдущего рипа с данным:



Параметры файла:
Название: Девочка ищет отца (1959).avi
Качество видео: TVRip
Формат видео: AVI
Размер: 1412.84 Mb ( 1 481 473 882 bytes )
Продолжительность: 01:26:02.439 (129061 frames)
Видео: 720x544 (1.32:1), 25 fps, XviD build 73, ~2094 kbps avg, 0.214 bit/pixel
Аудио: 48 kHz, Dolby AC3, stereo (2 ch), 192 kbps



General
Complete name : D:\torrents\Девочка ищет отца (1959).avi
Format : AVI
Format/Info : Audio Video Interleave
File size : 1.38 GiB
Duration : 1h 26mn
Overall bit rate : 2 296 Kbps
Writing library : VirtualDub build 35576/release

Video
ID : 0
Format : MPEG-4 Visual
Format profile : Advanced Simple@L5
Format settings, BVOP : 2
Format settings, QPel : No
Format settings, GMC : No warppoints
Format settings, Matrix : Default (H.263)
Codec ID : XVID
Codec ID/Hint : XviD
Duration : 1h 26mn
Bit rate : 2 094 Kbps
Width : 720 pixels
Height : 544 pixels
Display aspect ratio : 4:3
Frame rate : 25.000 fps
Color space : YUV
Chroma subsampling : 4:2:0
Bit depth : 8 bits
Scan type : Progressive
Compression mode : Lossy
Bits/(Pixel*Frame) : 0.214
Stream size : 1.26 GiB (91%)
Writing library : XviD 73

Audio
ID : 1
Format : AC-3
Format/Info : Audio Coding 3
Mode extension : CM (complete main)
Format settings, Endianness : Big
Codec ID : 2000
Duration : 1h 26mn
Bit rate mode : Constant
Bit rate : 192 Kbps
Channel(s) : 2 channels
Channel positions : Front: L R
Sampling rate : 48.0 KHz
Bit depth : 16 bits
Compression mode : Lossy
Stream size : 118 MiB (8%)
Alignment : Aligned on interleaves
Interleave, duration : 40 ms (1.00 video frame)
Interleave, preload duration : 512 ms








МОИ РАЗДАЧИ НА ФЕНИКСе: ЗДЕСЬ




Это сообщение отредактировал SanSan48 - 17.06.2017 - 19:07


--------------------
"Спартак" - ЧЕМПИОН!!!

Скрыть подпись


kyo
№2 Отправлено: 17.06.2017 - 19:32


Живёт здесь

Группа: Потребители
Регистрация: 21.07.2007
Сообщений: 1727
Обитает:
Последний раз был:
позавчера в 15:10




Архивы в порядке, спасибо !
Top
SanSan48
№3 Отправлено: 17.06.2017 - 19:35


"Спартак" - ЧЕМПИОН!!!

Группа: Пользователи
Регистрация: 28.12.2009
Сообщений: 1759
Обитает:
Последний раз был:
cегодня в 14:35




Цитата
( kyo @ 17.06.2017 - 19:32)
Архивы в порядке, спасибо !

kyo, Благодарю за информацию!


--------------------
"Спартак" - ЧЕМПИОН!!!

Скрыть подпись
Top
1 человек просматривает эту тему (1 гость)
« Предыдущая тема | Отечественное кино | Следующая тема »


 



[Script Execution time: 0,0346]   [23 queries used]   [GZIP enabled]