Заходят многие - остаются лучшие!
Здравствуйте Гость ( Вход | Регистрация ) Выслать повторно письмо для активации
Вход
Ваше имя Пароль Забыли пароль?
Запомнить Вас?
Войти скрытым?



 Правила раздела Новые сообщения раздела  


 

 Зарница / Heat Lightning (1934), Элин МакМэон, Энн Дворак, Престон Фостер /криминальная драма
surzhoks
  №1 Отправлено: 14.09.2019 - 09:17


Живёт здесь

Группа: Аксакалы
Регистрация: 17.03.2008
Сообщений: 1175
Обитает:
Последний раз был:
cегодня в 16:25




Зарница / Heat Lightning


Страна: США
Студия: Warner Bros. Pictures
Жанр: драма, криминал
Год выпуска: 1934
Продолжительность: 01:03:23
Режиссер: Мервин ЛеРой / Mervyn LeRoy

В ролях:
Элин МакМэон / Aline MacMahon ... Olga
Энн Дворак / Ann Dvorak ... Myra
Престон Фостер / Preston Foster ... George
Лайл Талбот / Lyle Talbot ... Jeff
Гленда Фаррелл / Glenda Farrell ... Mrs. Tifton
Фрэнк МакХью / Frank McHugh ... Frank
Рут Доннелли / Ruth Donnelly ... Mrs. Ashton-Ashley
Теодор Ньютон / Theodore Newton ... Steve Laird
Уиллард Робертсон / Willard Robertson ... Everett Marshall
Гарри Брэдли / Harry C. Bradley ... «Popsy» - a Businessman
Джеймс Даркин / James Durkin ... The Sheriff
Джейн Дарвелл / Jane Darwell .. Gladys - the Wife
Эдгар Кеннеди / Edgar Kennedy ... Herbert - the Husband
Мюриэль Эванс / Muriel Evans ... Blonde Cutie

Описание: В пустыне Мохаве Ольга вместе со своей младшей сестрой Майрой управляет заправочной станцией, закусочной и автолагерем. В течение 24 часов на Ольгу наваливается много событий: она конфликтует с Майрой, так как запрещает ей пойти в город на танцы со своим бойфрендом Стивом; внезапно появляется давний приятель Джордж, поведение которого сначала не вызывает подозрений; на ночёвку останавливаются две женщины, недавно разведенные в Рино, которые везут с собой ценные драгоценности. Джордж узнает о драгоценностях и играет на сердечных струнах Ольги, чтобы организовать ограбление. Атмосфера вокруг Ольги накаляется, в то время как на горизонте полыхает зарница...

Доп. информация:
Огромное спасибо всем причастным к релизу:
рип - Магда,
перевод фильма- Северный,
озвучивание фильма (по русским субтитрам) - Матвей Кенс,
работа со звуком и реавторинг DVD - AlekceyR76,
финансовая поддержка перевода и озвучивания фильма:
Магда, Lafajet, jasenka, yanaelisa, STICK24, voostorg, spartakeynoir, борюська, Ugo927, cementit, sindzi, mangust1, елена 22

Архивы созданы RAR-архиватором с добавлением 3% на восстановление и снабжены sfv-проверочником.
Просьба к первому скачавшему отписаться о сохранности архивов на источнике раздачи.

Раздача рассчитана на 2 месяца. На просмотр линка и скачивание 5 дней!
В случае если вы встали в очередь, а затем отказываетесь от скачивания без объяснения причин, возможен отказ в последующих моих раздачах.



Полное имя :Heat Lightning.avi
Формат : AVI
Формат/Информация : Audio Video Interleave
Размер файла : 1,10 Гбайт
Продолжительность : 1 ч. 3 м.
Общий поток : 2476 Кбит/сек
Программа кодирования : VirtualDubMod 1.5.10.3 | www.virtualdub-fr.org || (build 2550/release)
Библиотека кодирования : VirtualDubMod build 2550/release

Видео
Идентификатор : 0
Формат : MPEG-4 Visual
Профиль формата : Advanced Simple@L5
Параметр BVOP формата : 2
Параметр QPel формата : Нет
Параметр GMC формата : Без точки перехода
Параметр матрицы формата : Default (H.263)
Идентификатор кодека : XVID
Идентификатор кодека/Подсказка : XviD
Продолжительность : 1 ч. 3 м.
Битрейт : 2078 Кбит/сек
Ширина : 640 пикселей
Высота : 480 пикселей
Соотношение сторон : 4:3
Частота кадров : 23,976 кадра/сек
Цветовое пространство : YUV
Субдискретизация насыщенности : 4:2:0
Битовая глубина : 8 бит
Тип развёртки : Прогрессивная
Метод сжатия : С потерями
Бит/(Пиксели*Кадры) : 0.282
Размер потока : 942 Мбайт (84%)
Библиотека кодирования : XviD 73

Аудио #1
Идентификатор : 1
Формат : AC-3
Формат/Информация : Audio Coding 3
Расширение режима : CM (complete main)
Параметр Endianness формата : Big
Идентификатор кодека : 2000
Продолжительность : 1 ч. 3 м.
Вид битрейта : Постоянный
Битрейт : 192 Кбит/сек
Каналы : 2 канала
Расположение каналов : Front: L R
Частота : 48,0 КГц
Битовая глубина : 16 бит
Метод сжатия : С потерями
Размер потока : 87,1 Мбайт (8%)
Выравнивание : Разделение по промежуткам
Продолжительность промежутка : 42 мс. (1,00 видеокадр)
Время предзагрузки промежутка : 500 мс.

Аудио #2
Идентификатор : 2
Формат : AC-3
Формат/Информация : Audio Coding 3
Расширение режима : CM (complete main)
Параметр Endianness формата : Big
Идентификатор кодека : 2000
Продолжительность : 1 ч. 3 м.
Вид битрейта : Постоянный
Битрейт : 192 Кбит/сек
Каналы : 2 канала
Расположение каналов : Front: L R
Частота : 48,0 КГц
Битовая глубина : 16 бит
Метод сжатия : С потерями
Размер потока : 87,1 Мбайт (8%)
Выравнивание : Разделение по промежуткам
Продолжительность промежутка : 42 мс. (1,00 видеокадр)
Время предзагрузки промежутка : 500 мс.




енотенотыч
№2 Отправлено: 14.09.2019 - 13:24


Прохожий

Группа: Потребители
Регистрация: 16.11.2017
Сообщений: 37
Обитает:
Последний раз был:
cегодня в 14:35




Спасибо. Архив в порядке
Top
сергей0808
№3 Отправлено: 15.09.2019 - 04:33


Старожил

Группа: Пользователи
Регистрация: 5.08.2009
Сообщений: 947
Обитает:
Последний раз был:
30.09.2019 - 16:13




Архивы в порядке. Благодарю!
Top
1 человек просматривает эту тему (1 гость)
« Предыдущая тема | Зарубежные фильмы | Следующая тема »


 



[Script Execution time: 0,0459]   [22 queries used]   [GZIP enabled]